<svg xmlns="http://www.w3.org/2000/svg">
<defs>
<font
   horiz-adv-x="1000"
   id="font434">
<!-- Copyright: Copyright 2019 Adobe System Incorporated. All rights reserved. -->
<font-face
   font-family="Saira-SemiBold"
   units-per-em="1000"
   underline-position="-75"
   underline-thickness="50"
   id="font-face4" />
<missing-glyph
   horiz-adv-x="500"
   d="M0,0l0,700l500,0l0,-700M450,650l-400,0l0,-600l400,0M229,278C229,297 234,313 243,326C252,339 265,352 283,367C302,382 316,397 325,411C334,424 339,442 339,465C339,486 333,505 320,524C307,543 284,552 250,552C211,552 185,541 172,519C159,496 152,474 152,452l0,-28l-49,0C103,425 102,428 101,434C100,439 99,446 99,455C99,470 103,489 110,511C117,533 131,554 154,573C176,592 208,602 250,602C292,602 324,593 345,574C366,555 379,536 385,516C390,496 393,480 393,467C393,437 387,412 375,393C362,374 346,355 326,338C311,326 300,315 293,305C286,295 282,283 282,268l0,-53l-53,0M225,99l0,70l60,0l0,-70z"
   id="missing-glyph6" />
<glyph
   unicode=" "
   horiz-adv-x="246"
   id="glyph8" />
<glyph
   unicode=" "
   horiz-adv-x="246"
   id="glyph10" />
<glyph
   unicode="A"
   horiz-adv-x="687"
   d="M525,0l-50,148l-268,0l-49,-148l-143,0l233,688l191,0l233,-688M343,554l-5,0l-93,-282l192,0z"
   id="glyph12" />
<glyph
   unicode="Á"
   horiz-adv-x="684"
   d="M525,0l-50,148l-268,0l-49,-148l-143,0l233,688l191,0l233,-688M343,554l-5,0l-93,-282l192,0M263,750l0,5l94,139l134,0l0,-5l-132,-139z"
   id="glyph14" />
<glyph
   unicode="Â"
   horiz-adv-x="684"
   d="M525,0l-50,148l-268,0l-49,-148l-143,0l233,688l191,0l233,-688M343,554l-5,0l-93,-282l192,0M182,750l0,7l96,138l128,0l97,-138l0,-7l-88,0l-74,85l-72,-85z"
   id="glyph16" />
<glyph
   unicode="Ä"
   horiz-adv-x="684"
   d="M525,0l-50,148l-268,0l-49,-148l-143,0l233,688l191,0l233,-688M343,554l-5,0l-93,-282l192,0M185,777l0,103l114,0l0,-103M384,777l0,103l114,0l0,-103z"
   id="glyph18" />
<glyph
   unicode="À"
   horiz-adv-x="684"
   d="M525,0l-50,148l-268,0l-49,-148l-143,0l233,688l191,0l233,-688M343,554l-5,0l-93,-282l192,0M319,750l-131,139l0,5l133,0l95,-139l0,-5z"
   id="glyph20" />
<glyph
   unicode="Å"
   horiz-adv-x="687"
   d="M672,0l-147,0l-50,148l-268,0l-49,-148l-143,0l236,689C230,697 216,709 210,724C204,739 201,761 201,791C201,822 204,846 209,862C214,877 227,889 247,897C267,905 299,909 342,909C387,909 419,905 440,897C460,889 473,877 478,862C483,846 486,822 486,791C486,761 483,739 477,724C471,709 457,697 436,689M276,791C276,774 277,762 280,755C282,748 288,743 297,740C306,737 321,735 342,735C365,735 381,737 390,740C399,743 405,748 407,755C409,762 410,774 410,791C410,808 409,820 407,827C405,834 399,839 390,842C381,845 365,847 342,847C321,847 306,845 297,842C288,839 282,834 280,827C277,820 276,808 276,791M245,272l192,0l-94,282l-5,0z"
   id="glyph22" />
<glyph
   unicode="Ã"
   horiz-adv-x="684"
   d="M525,0l-50,148l-268,0l-49,-148l-143,0l233,688l191,0l233,-688M343,554l-5,0l-93,-282l192,0M446,762C429,762 412,764 396,767C379,770 357,775 328,782C323,783 311,786 293,791C275,795 260,797 248,797C235,797 228,794 225,789C222,783 221,770 221,751l-70,0C151,785 153,811 156,830C159,848 167,862 180,872C192,882 211,887 238,887C255,887 272,885 289,882C306,879 328,874 355,867C394,857 421,852 436,852C449,852 456,855 459,861C462,866 463,879 463,898l69,0C532,863 530,837 527,819C524,801 516,787 504,777C491,767 472,762 446,762z"
   id="glyph24" />
<glyph
   unicode="Æ"
   horiz-adv-x="969"
   d="M496,0l-31,148l-267,0l-70,-148l-142,0l322,688l604,0l0,-123l-388,0l34,-157l307,0l0,-122l-284,0l35,-163l296,0l0,-123M386,553l-5,0l-131,-282l193,0z"
   id="glyph26" />
<glyph
   unicode="B"
   horiz-adv-x="678"
   d="M83,688l336,0C486,688 535,674 566,645C597,616 613,572 613,515C613,467 604,430 585,405C566,380 536,362 495,353l0,-4C540,340 573,322 592,297C611,272 620,234 620,183C620,124 605,78 575,47C544,16 492,0 419,0l-336,0M469,486C469,508 466,525 461,536C456,547 446,554 432,559C418,563 397,565 368,565l-143,0l0,-156l143,0C407,409 433,415 448,426C462,437 469,457 469,486M476,204C476,226 473,243 467,255C461,266 451,274 437,279C422,284 401,286 373,286l-148,0l0,-163l148,0C401,123 422,125 437,130C452,135 462,143 468,154C473,165 476,182 476,204z"
   id="glyph28" />
<glyph
   unicode="C"
   horiz-adv-x="573"
   d="M350,-8C265,-8 203,2 163,23C122,44 95,78 82,126C69,174 62,247 62,344C62,440 69,512 82,561C95,609 122,644 163,665C203,686 265,696 350,696C379,696 409,694 441,691C473,688 500,683 521,678l0,-115C463,570 418,573 386,573C325,573 283,569 260,560C237,551 222,531 215,502C208,473 205,420 205,344C205,268 208,215 215,186C222,157 237,138 260,129C283,120 325,115 386,115C437,115 483,118 525,125l0,-117C502,3 475,0 442,-3C409,-6 378,-8 350,-8z"
   id="glyph30" />
<glyph
   unicode="Ç"
   horiz-adv-x="573"
   d="M525,125l0,-117C502,3 475,0 442,-3C409,-6 378,-8 350,-8l-20,0l-35,-182l-125,0l0,5l69,185C188,8 151,25 126,50C101,75 84,110 75,155C66,200 62,263 62,344C62,440 69,512 82,561C95,609 122,644 163,665C203,686 265,696 350,696C379,696 409,694 441,691C473,688 500,683 521,678l0,-115C463,570 418,573 386,573C325,573 283,569 260,560C237,551 222,531 215,502C208,473 205,420 205,344C205,268 208,215 215,186C222,157 237,138 260,129C283,120 325,115 386,115C437,115 483,118 525,125z"
   id="glyph32" />
<glyph
   unicode="D"
   horiz-adv-x="686"
   d="M83,688l234,0C416,688 486,678 529,659C571,639 597,607 608,563C619,519 624,446 624,344C624,242 619,169 608,125C597,81 571,49 529,30C486,10 416,0 317,0l-234,0M310,123C371,123 411,126 432,133C453,140 466,157 472,184C477,211 480,265 480,344C480,423 477,476 471,504C465,531 452,548 432,555C411,562 371,565 310,565l-85,0l0,-442z"
   id="glyph34" />
<glyph
   unicode="Ð"
   horiz-adv-x="686"
   d="M83,295l-67,0l0,106l67,0l0,287l234,0C416,688 486,678 529,659C571,639 597,607 608,563C619,519 624,446 624,344C624,242 619,169 608,125C597,81 571,49 529,30C486,10 416,0 317,0l-234,0M480,344C480,423 477,476 471,504C465,531 452,548 432,555C411,562 371,565 310,565l-85,0l0,-164l93,0l0,-106l-93,0l0,-172l85,0C371,123 411,126 432,133C453,140 466,157 472,184C477,211 480,265 480,344z"
   id="glyph36" />
<glyph
   unicode="E"
   horiz-adv-x="612"
   d="M83,0l0,688l473,0l0,-123l-331,0l0,-156l284,0l0,-123l-284,0l0,-163l331,0l0,-123z"
   id="glyph38" />
<glyph
   unicode="É"
   horiz-adv-x="606"
   d="M83,0l0,688l473,0l0,-123l-331,0l0,-156l284,0l0,-123l-284,0l0,-163l331,0l0,-123M270,750l0,5l94,139l134,0l0,-5l-132,-139z"
   id="glyph40" />
<glyph
   unicode="Ê"
   horiz-adv-x="606"
   d="M83,0l0,688l473,0l0,-123l-331,0l0,-156l284,0l0,-123l-284,0l0,-163l331,0l0,-123M153,750l0,7l96,138l128,0l97,-138l0,-7l-88,0l-74,85l-72,-85z"
   id="glyph42" />
<glyph
   unicode="Ë"
   horiz-adv-x="606"
   d="M83,0l0,688l473,0l0,-123l-331,0l0,-156l284,0l0,-123l-284,0l0,-163l331,0l0,-123M162,772l0,103l114,0l0,-103M361,772l0,103l114,0l0,-103z"
   id="glyph44" />
<glyph
   unicode="È"
   horiz-adv-x="606"
   d="M83,0l0,688l473,0l0,-123l-331,0l0,-156l284,0l0,-123l-284,0l0,-163l331,0l0,-123M292,750l-131,139l0,5l133,0l95,-139l0,-5z"
   id="glyph46" />
<glyph
   unicode="F"
   horiz-adv-x="573"
   d="M83,0l0,688l453,0l0,-123l-311,0l0,-175l274,0l0,-123l-274,0l0,-267z"
   id="glyph48" />
<glyph
   unicode="G"
   horiz-adv-x="670"
   d="M346,276l0,118l249,0l0,-379C560,8 521,3 478,-1C435,-6 398,-8 365,-8C278,-8 214,1 173,20C131,38 102,71 86,120C70,169 62,243 62,344C62,439 70,512 86,561C102,610 131,644 174,665C217,686 280,696 365,696C396,696 426,694 456,691C485,688 521,683 563,677l29,-4l0,-115l-37,4C492,569 447,573 421,573C350,573 302,569 275,562C248,555 229,536 220,506C210,475 205,421 205,344C205,274 209,224 216,193C223,162 238,140 261,129C283,118 319,112 370,112C407,112 437,113 459,115l0,161z"
   id="glyph50" />
<glyph
   unicode="H"
   horiz-adv-x="720"
   d="M496,0l0,282l-272,0l0,-282l-142,0l0,688l142,0l0,-278l272,0l0,278l143,0l0,-688z"
   id="glyph52" />
<glyph
   unicode="I"
   horiz-adv-x="306"
   d="M82,0l0,688l142,0l0,-688z"
   id="glyph54" />
<glyph
   unicode="Í"
   horiz-adv-x="306"
   d="M82,0l0,688l142,0l0,-688M86,750l0,5l94,139l134,0l0,-5l-132,-139z"
   id="glyph56" />
<glyph
   unicode="Î"
   horiz-adv-x="306"
   d="M82,0l0,688l142,0l0,-688M-7,750l0,7l96,138l128,0l97,-138l0,-7l-88,0l-74,85l-72,-85z"
   id="glyph58" />
<glyph
   unicode="Ï"
   horiz-adv-x="306"
   d="M82,0l0,688l142,0l0,-688M-3,777l0,103l114,0l0,-103M196,777l0,103l114,0l0,-103z"
   id="glyph60" />
<glyph
   unicode="Ì"
   horiz-adv-x="306"
   d="M82,0l0,688l142,0l0,-688M130,750l-131,139l0,5l133,0l95,-139l0,-5z"
   id="glyph62" />
<glyph
   unicode="J"
   horiz-adv-x="388"
   d="M168,261l0,427l143,0l0,-387C311,196 306,124 296,87C286,50 264,26 229,16C194,6 126,1 26,0l0,114C76,115 110,118 128,123C146,128 157,140 162,158C166,175 168,210 168,261z"
   id="glyph64" />
<glyph
   unicode="K"
   horiz-adv-x="679"
   d="M503,0l-209,289l-69,0l0,-289l-142,0l0,688l142,0l0,-276l69,0l213,276l157,0l-256,-328l259,-360z"
   id="glyph66" />
<glyph
   unicode="L"
   horiz-adv-x="541"
   d="M83,0l0,688l142,0l0,-559l291,0l0,-129z"
   id="glyph68" />
<glyph
   unicode="M"
   horiz-adv-x="897"
   d="M678,0l0,470l-5,0l-178,-470l-98,0l-177,470l-5,0l0,-470l-133,0l0,688l196,0l168,-441l6,0l168,441l195,0l0,-688z"
   id="glyph70" />
<glyph
   unicode="N"
   horiz-adv-x="721"
   d="M504,0l-281,437l-4,0l0,-437l-137,0l0,688l147,0l269,-412l5,0l0,412l137,0l0,-688z"
   id="glyph72" />
<glyph
   unicode="Ñ"
   horiz-adv-x="721"
   d="M504,0l-281,437l-4,0l0,-437l-137,0l0,688l147,0l269,-412l5,0l0,412l137,0l0,-688M464,763C447,763 430,765 414,768C397,771 375,776 346,783C341,784 329,787 311,792C293,796 278,798 266,798C253,798 246,795 243,790C240,784 239,771 239,752l-70,0C169,786 171,812 174,831C177,849 185,863 198,873C210,883 229,888 256,888C273,888 290,886 307,883C324,880 346,875 373,868C412,858 439,853 454,853C467,853 474,856 477,862C480,867 481,880 481,899l69,0C550,864 548,838 545,820C542,802 534,788 522,778C509,768 490,763 464,763z"
   id="glyph74" />
<glyph
   unicode="O"
   horiz-adv-x="709"
   d="M62,344C62,448 67,523 78,568C88,613 113,646 153,666C193,686 260,696 354,696C448,696 515,686 556,666C596,646 621,613 632,568C642,523 647,448 647,344C647,240 642,165 632,120C621,75 596,42 556,22C515,2 448,-8 354,-8C260,-8 193,2 153,22C113,42 88,75 78,120C67,165 62,240 62,344M503,344C503,425 501,480 496,509C491,537 479,555 461,562C442,569 407,573 354,573C301,573 266,569 248,562C230,555 218,537 213,508C208,479 205,425 205,344C205,263 208,209 213,180C218,151 230,133 248,126C266,119 301,115 354,115C407,115 442,119 461,126C479,133 491,151 496,180C501,208 503,263 503,344z"
   id="glyph76" />
<glyph
   unicode="Ó"
   horiz-adv-x="705"
   d="M62,344C62,448 67,523 78,568C88,613 113,646 153,666C193,686 260,696 354,696C448,696 515,686 556,666C596,646 621,613 632,568C642,523 647,448 647,344C647,240 642,165 632,120C621,75 596,42 556,22C515,2 448,-8 354,-8C260,-8 193,2 153,22C113,42 88,75 78,120C67,165 62,240 62,344M503,344C503,425 501,480 496,509C491,537 479,555 461,562C442,569 407,573 354,573C301,573 266,569 248,562C230,555 218,537 213,508C208,479 205,425 205,344C205,263 208,209 213,180C218,151 230,133 248,126C266,119 301,115 354,115C407,115 442,119 461,126C479,133 491,151 496,180C501,208 503,263 503,344M291,750l0,5l94,139l134,0l0,-5l-132,-139z"
   id="glyph78" />
<glyph
   unicode="Ô"
   horiz-adv-x="705"
   d="M62,344C62,448 67,523 78,568C88,613 113,646 153,666C193,686 260,696 354,696C448,696 515,686 556,666C596,646 621,613 632,568C642,523 647,448 647,344C647,240 642,165 632,120C621,75 596,42 556,22C515,2 448,-8 354,-8C260,-8 193,2 153,22C113,42 88,75 78,120C67,165 62,240 62,344M503,344C503,425 501,480 496,509C491,537 479,555 461,562C442,569 407,573 354,573C301,573 266,569 248,562C230,555 218,537 213,508C208,479 205,425 205,344C205,263 208,209 213,180C218,151 230,133 248,126C266,119 301,115 354,115C407,115 442,119 461,126C479,133 491,151 496,180C501,208 503,263 503,344M192,750l0,7l96,138l128,0l97,-138l0,-7l-88,0l-74,85l-72,-85z"
   id="glyph80" />
<glyph
   unicode="Ö"
   horiz-adv-x="705"
   d="M62,344C62,448 67,523 78,568C88,613 113,646 153,666C193,686 260,696 354,696C448,696 515,686 556,666C596,646 621,613 632,568C642,523 647,448 647,344C647,240 642,165 632,120C621,75 596,42 556,22C515,2 448,-8 354,-8C260,-8 193,2 153,22C113,42 88,75 78,120C67,165 62,240 62,344M503,344C503,425 501,480 496,509C491,537 479,555 461,562C442,569 407,573 354,573C301,573 266,569 248,562C230,555 218,537 213,508C208,479 205,425 205,344C205,263 208,209 213,180C218,151 230,133 248,126C266,119 301,115 354,115C407,115 442,119 461,126C479,133 491,151 496,180C501,208 503,263 503,344M197,777l0,103l114,0l0,-103M396,777l0,103l114,0l0,-103z"
   id="glyph82" />
<glyph
   unicode="Ò"
   horiz-adv-x="705"
   d="M62,344C62,448 67,523 78,568C88,613 113,646 153,666C193,686 260,696 354,696C448,696 515,686 556,666C596,646 621,613 632,568C642,523 647,448 647,344C647,240 642,165 632,120C621,75 596,42 556,22C515,2 448,-8 354,-8C260,-8 193,2 153,22C113,42 88,75 78,120C67,165 62,240 62,344M503,344C503,425 501,480 496,509C491,537 479,555 461,562C442,569 407,573 354,573C301,573 266,569 248,562C230,555 218,537 213,508C208,479 205,425 205,344C205,263 208,209 213,180C218,151 230,133 248,126C266,119 301,115 354,115C407,115 442,119 461,126C479,133 491,151 496,180C501,208 503,263 503,344M313,750l-131,139l0,5l133,0l95,-139l0,-5z"
   id="glyph84" />
<glyph
   unicode="Ø"
   horiz-adv-x="703"
   d="M647,344C647,240 642,165 632,120C621,75 596,42 556,22C515,2 448,-8 354,-8C293,-8 245,-4 210,3l-34,-58l-114,0l58,100C103,61 90,82 82,108C73,134 68,165 66,200C63,235 62,283 62,344C62,448 67,523 78,568C88,613 113,646 153,666C193,686 260,696 354,696C411,696 458,693 493,686l33,57l116,0l-57,-97C604,630 618,609 627,583C636,557 641,526 644,490C646,454 647,405 647,344M210,199l216,372C413,572 389,573 354,573C301,573 266,569 248,562C230,555 218,537 213,508C208,479 205,425 205,344C205,275 207,226 210,199M503,344C503,376 503,406 502,433C501,460 500,481 498,496l-221,-378C290,116 316,115 354,115C407,115 442,119 461,126C479,133 491,151 496,180C501,208 503,263 503,344z"
   id="glyph86" />
<glyph
   unicode="Õ"
   horiz-adv-x="705"
   d="M62,344C62,448 67,523 78,568C88,613 113,646 153,666C193,686 260,696 354,696C448,696 515,686 556,666C596,646 621,613 632,568C642,523 647,448 647,344C647,240 642,165 632,120C621,75 596,42 556,22C515,2 448,-8 354,-8C260,-8 193,2 153,22C113,42 88,75 78,120C67,165 62,240 62,344M503,344C503,425 501,480 496,509C491,537 479,555 461,562C442,569 407,573 354,573C301,573 266,569 248,562C230,555 218,537 213,508C208,479 205,425 205,344C205,263 208,209 213,180C218,151 230,133 248,126C266,119 301,115 354,115C407,115 442,119 461,126C479,133 491,151 496,180C501,208 503,263 503,344M458,762C441,762 424,764 408,767C391,770 369,775 340,782C335,783 323,786 305,791C287,795 272,797 260,797C247,797 240,794 237,789C234,783 233,770 233,751l-70,0C163,785 165,811 168,830C171,848 179,862 192,872C204,882 223,887 250,887C267,887 284,885 301,882C318,879 340,874 367,867C406,857 433,852 448,852C461,852 468,855 471,861C474,866 475,879 475,898l69,0C544,863 542,837 539,819C536,801 528,787 516,777C503,767 484,762 458,762z"
   id="glyph88" />
<glyph
   unicode="Œ"
   horiz-adv-x="1019"
   d="M62,344C62,446 67,519 78,563C88,607 113,639 153,659C193,678 260,688 354,688l609,0l0,-123l-272,0C666,565 642,568 619,573C628,553 635,530 639,504C643,478 646,446 647,409l269,0l0,-123l-269,0C646,247 644,213 640,186C636,159 629,135 619,115C644,120 668,123 691,123l272,0l0,-123l-609,0C260,0 193,10 153,30C113,49 88,81 78,125C67,169 62,242 62,344M503,344C503,423 501,476 496,503C491,530 479,547 461,554C442,561 407,565 354,565C301,565 266,561 248,554C230,547 218,529 213,502C208,475 205,422 205,344C205,266 208,213 213,186C218,159 230,141 248,134C266,127 301,123 354,123C407,123 442,127 461,134C479,141 491,159 496,186C501,213 503,265 503,344z"
   id="glyph90" />
<glyph
   unicode="P"
   horiz-adv-x="650"
   d="M83,688l317,0C457,688 501,679 532,661C563,643 583,618 594,585C605,552 610,510 610,459C610,410 605,369 595,336C584,303 563,277 532,258C501,239 456,229 397,229l-172,0l0,-229l-142,0M339,352C379,352 408,355 425,360C442,365 454,375 459,390C464,404 467,427 467,459C467,491 465,514 460,528C455,542 444,552 427,557C410,562 381,565 341,565l-116,0l0,-213z"
   id="glyph92" />
<glyph
   unicode="Þ"
   horiz-adv-x="650"
   d="M83,688l142,0l0,-108l175,0C457,580 501,571 532,553C563,535 583,510 594,477C605,444 610,402 610,351C610,302 605,262 595,229C584,196 563,170 532,151C501,132 456,122 397,122l-172,0l0,-122l-142,0M339,244C379,244 408,247 425,253C442,258 454,268 459,282C464,296 467,319 467,351C467,383 465,406 460,420C455,434 444,444 427,449C410,454 381,457 341,457l-116,0l0,-213z"
   id="glyph94" />
<glyph
   unicode="Q"
   horiz-adv-x="709"
   d="M670,-110l0,-5l-156,0l-75,110C414,-7 385,-8 354,-8C260,-8 193,2 153,22C113,42 88,75 78,120C67,165 62,240 62,344C62,448 67,523 78,568C88,613 113,646 153,666C193,686 260,696 354,696C448,696 515,686 556,666C596,646 621,613 632,568C642,523 647,448 647,344C647,277 646,224 643,187C640,150 633,118 622,92C611,65 593,45 569,30M357,115l-70,103l147,0l51,-71C493,160 498,181 500,209C502,236 503,281 503,344C503,425 501,480 496,509C491,537 479,555 461,562C442,569 407,573 354,573C301,573 266,569 248,562C230,555 218,537 213,508C208,479 205,425 205,344C205,263 208,209 213,180C218,151 230,133 248,126C266,119 301,115 354,115z"
   id="glyph96" />
<glyph
   unicode="R"
   horiz-adv-x="679"
   d="M481,0l-101,249l-155,0l0,-249l-142,0l0,688l324,0C466,688 512,679 543,662C574,644 594,620 605,589C615,558 620,518 620,469C620,360 587,293 522,268l110,-268M476,469C476,498 474,518 469,531C464,544 453,553 436,558C419,563 390,565 351,565l-126,0l0,-193l125,0C389,372 417,375 435,380C452,385 464,395 469,408C474,421 476,441 476,469z"
   id="glyph98" />
<glyph
   unicode="S"
   horiz-adv-x="622"
   d="M73,8l0,119C155,119 225,115 283,115C317,115 344,117 363,120C382,123 396,128 405,135C414,142 419,150 422,159C424,168 425,182 425,199C425,218 424,233 421,242C418,251 413,257 405,262C397,266 384,269 365,271l-147,17C174,294 140,306 116,323C92,340 76,362 67,389C58,416 53,449 53,489C53,548 64,592 85,623C106,653 135,673 171,682C207,691 253,696 310,696C397,696 472,689 534,676l0,-116C469,569 404,573 339,573C279,573 239,568 220,558C209,553 203,546 200,537C197,528 196,515 196,498C196,478 197,464 200,455C203,446 209,440 218,437C227,433 242,430 263,427l158,-19C452,405 477,399 497,390C517,381 533,366 544,345C560,316 568,272 568,212C568,149 558,101 538,69C518,37 491,16 458,7C424,-3 380,-8 325,-8C227,-8 143,-3 73,8z"
   id="glyph100" />
<glyph
   unicode="T"
   horiz-adv-x="582"
   d="M220,0l0,559l-200,0l0,129l542,0l0,-129l-200,0l0,-559z"
   id="glyph102" />
<glyph
   unicode="U"
   horiz-adv-x="696"
   d="M619,688l0,-380C619,217 613,150 602,108C590,65 565,35 528,18C491,1 431,-8 348,-8C265,-8 205,1 168,18C131,35 106,65 94,108C82,150 76,217 76,308l0,380l142,0l0,-416C218,221 220,185 225,165C230,145 241,131 258,124C275,117 305,113 348,113C391,113 422,117 439,124C456,131 466,145 471,165C475,185 477,221 477,272l0,416z"
   id="glyph104" />
<glyph
   unicode="Ú"
   horiz-adv-x="696"
   d="M619,688l0,-380C619,217 613,150 602,108C590,65 565,35 528,18C491,1 431,-8 348,-8C265,-8 205,1 168,18C131,35 106,65 94,108C82,150 76,217 76,308l0,380l142,0l0,-416C218,221 220,185 225,165C230,145 241,131 258,124C275,117 305,113 348,113C391,113 422,117 439,124C456,131 466,145 471,165C475,185 477,221 477,272l0,416M300,750l0,5l94,139l134,0l0,-5l-132,-139z"
   id="glyph106" />
<glyph
   unicode="Û"
   horiz-adv-x="696"
   d="M619,688l0,-380C619,217 613,150 602,108C590,65 565,35 528,18C491,1 431,-8 348,-8C265,-8 205,1 168,18C131,35 106,65 94,108C82,150 76,217 76,308l0,380l142,0l0,-416C218,221 220,185 225,165C230,145 241,131 258,124C275,117 305,113 348,113C391,113 422,117 439,124C456,131 466,145 471,165C475,185 477,221 477,272l0,416M190,750l0,7l96,138l128,0l97,-138l0,-7l-88,0l-74,85l-72,-85z"
   id="glyph108" />
<glyph
   unicode="Ü"
   horiz-adv-x="696"
   d="M619,688l0,-380C619,217 613,150 602,108C590,65 565,35 528,18C491,1 431,-8 348,-8C265,-8 205,1 168,18C131,35 106,65 94,108C82,150 76,217 76,308l0,380l142,0l0,-416C218,221 220,185 225,165C230,145 241,131 258,124C275,117 305,113 348,113C391,113 422,117 439,124C456,131 466,145 471,165C475,185 477,221 477,272l0,416M191,777l0,103l114,0l0,-103M390,777l0,103l114,0l0,-103z"
   id="glyph110" />
<glyph
   unicode="Ù"
   horiz-adv-x="696"
   d="M619,688l0,-380C619,217 613,150 602,108C590,65 565,35 528,18C491,1 431,-8 348,-8C265,-8 205,1 168,18C131,35 106,65 94,108C82,150 76,217 76,308l0,380l142,0l0,-416C218,221 220,185 225,165C230,145 241,131 258,124C275,117 305,113 348,113C391,113 422,117 439,124C456,131 466,145 471,165C475,185 477,221 477,272l0,416M316,750l-131,139l0,5l133,0l95,-139l0,-5z"
   id="glyph112" />
<glyph
   unicode="V"
   horiz-adv-x="662"
   d="M236,0l-219,688l146,0l167,-528l6,0l164,528l144,0l-219,-688z"
   id="glyph114" />
<glyph
   unicode="W"
   horiz-adv-x="982"
   d="M624,0l-125,460l-4,0l-125,-460l-178,0l-169,688l143,0l122,-514l5,0l133,514l147,0l136,-514l5,0l115,514l142,0l-169,-688z"
   id="glyph116" />
<glyph
   unicode="X"
   horiz-adv-x="677"
   d="M495,0l-155,230l-8,0l-156,-230l-158,0l233,345l-229,343l164,0l151,-223l8,0l152,223l159,0l-229,-340l232,-348z"
   id="glyph118" />
<glyph
   unicode="Y"
   horiz-adv-x="623"
   d="M239,0l0,242l-235,446l149,0l157,-302l7,0l156,302l145,0l-236,-446l0,-242z"
   id="glyph120" />
<glyph
   unicode="Ý"
   horiz-adv-x="623"
   d="M239,0l0,242l-235,446l149,0l157,-302l7,0l156,302l145,0l-236,-446l0,-242M268,750l0,5l94,139l134,0l0,-5l-132,-139z"
   id="glyph122" />
<glyph
   unicode="Z"
   horiz-adv-x="613"
   d="M47,0l0,118l338,447l-327,0l0,123l507,0l0,-114l-342,-451l346,0l0,-123z"
   id="glyph124" />
<glyph
   unicode="a"
   horiz-adv-x="564"
   d="M44,143C44,183 49,214 58,237C67,260 84,276 107,287C130,297 162,302 204,302C239,302 291,301 360,298l0,19C360,347 357,368 351,380C344,392 332,400 315,403C298,406 268,408 225,408C204,408 179,407 148,405C117,403 93,401 75,399l0,103C137,513 202,518 269,518C334,518 383,511 415,497C447,482 468,461 478,433C488,404 493,364 493,311l0,-311l-125,0l-4,62l-7,0C342,34 320,15 292,6C264,-3 232,-8 196,-8C145,-8 107,4 82,27C57,50 44,89 44,143M345,129C355,145 360,170 360,204l0,16l-120,0C220,220 205,219 196,216C187,213 180,207 177,198C174,189 172,176 172,157C172,139 174,126 179,118C183,110 191,105 203,102C214,99 233,97 259,97C281,97 299,100 313,105C326,110 337,118 345,129z"
   id="glyph126" />
<glyph
   unicode="á"
   horiz-adv-x="564"
   d="M44,143C44,183 49,214 58,237C67,260 84,276 107,287C130,297 162,302 204,302C239,302 291,301 360,298l0,19C360,347 357,368 351,380C344,392 332,400 315,403C298,406 268,408 225,408C204,408 179,407 148,405C117,403 93,401 75,399l0,103C137,513 202,518 269,518C334,518 383,511 415,497C447,482 468,461 478,433C488,404 493,364 493,311l0,-311l-125,0l-4,62l-7,0C342,34 320,15 292,6C264,-3 232,-8 196,-8C145,-8 107,4 82,27C57,50 44,89 44,143M345,129C355,145 360,170 360,204l0,16l-120,0C220,220 205,219 196,216C187,213 180,207 177,198C174,189 172,176 172,157C172,139 174,126 179,118C183,110 191,105 203,102C214,99 233,97 259,97C281,97 299,100 313,105C326,110 337,118 345,129M225,599l0,5l94,139l134,0l0,-5l-132,-139z"
   id="glyph128" />
<glyph
   unicode="â"
   horiz-adv-x="564"
   d="M44,143C44,183 49,214 58,237C67,260 84,276 107,287C130,297 162,302 204,302C239,302 291,301 360,298l0,19C360,347 357,368 351,380C344,392 332,400 315,403C298,406 268,408 225,408C204,408 179,407 148,405C117,403 93,401 75,399l0,103C137,513 202,518 269,518C334,518 383,511 415,497C447,482 468,461 478,433C488,404 493,364 493,311l0,-311l-125,0l-4,62l-7,0C342,34 320,15 292,6C264,-3 232,-8 196,-8C145,-8 107,4 82,27C57,50 44,89 44,143M345,129C355,145 360,170 360,204l0,16l-120,0C220,220 205,219 196,216C187,213 180,207 177,198C174,189 172,176 172,157C172,139 174,126 179,118C183,110 191,105 203,102C214,99 233,97 259,97C281,97 299,100 313,105C326,110 337,118 345,129M123,598l0,7l96,138l128,0l97,-138l0,-7l-88,0l-74,85l-72,-85z"
   id="glyph130" />
<glyph
   unicode="ä"
   horiz-adv-x="564"
   d="M44,143C44,183 49,214 58,237C67,260 84,276 107,287C130,297 162,302 204,302C239,302 291,301 360,298l0,19C360,347 357,368 351,380C344,392 332,400 315,403C298,406 268,408 225,408C204,408 179,407 148,405C117,403 93,401 75,399l0,103C137,513 202,518 269,518C334,518 383,511 415,497C447,482 468,461 478,433C488,404 493,364 493,311l0,-311l-125,0l-4,62l-7,0C342,34 320,15 292,6C264,-3 232,-8 196,-8C145,-8 107,4 82,27C57,50 44,89 44,143M345,129C355,145 360,170 360,204l0,16l-120,0C220,220 205,219 196,216C187,213 180,207 177,198C174,189 172,176 172,157C172,139 174,126 179,118C183,110 191,105 203,102C214,99 233,97 259,97C281,97 299,100 313,105C326,110 337,118 345,129M126,627l0,103l114,0l0,-103M325,627l0,103l114,0l0,-103z"
   id="glyph132" />
<glyph
   unicode="à"
   horiz-adv-x="564"
   d="M44,143C44,183 49,214 58,237C67,260 84,276 107,287C130,297 162,302 204,302C239,302 291,301 360,298l0,19C360,347 357,368 351,380C344,392 332,400 315,403C298,406 268,408 225,408C204,408 179,407 148,405C117,403 93,401 75,399l0,103C137,513 202,518 269,518C334,518 383,511 415,497C447,482 468,461 478,433C488,404 493,364 493,311l0,-311l-125,0l-4,62l-7,0C342,34 320,15 292,6C264,-3 232,-8 196,-8C145,-8 107,4 82,27C57,50 44,89 44,143M345,129C355,145 360,170 360,204l0,16l-120,0C220,220 205,219 196,216C187,213 180,207 177,198C174,189 172,176 172,157C172,139 174,126 179,118C183,110 191,105 203,102C214,99 233,97 259,97C281,97 299,100 313,105C326,110 337,118 345,129M241,599l-131,139l0,5l133,0l95,-139l0,-5z"
   id="glyph134" />
<glyph
   unicode="å"
   horiz-adv-x="564"
   d="M44,143C44,183 49,214 58,237C67,260 84,276 107,287C130,297 162,302 204,302C239,302 291,301 360,298l0,19C360,347 357,368 351,380C344,392 332,400 315,403C298,406 268,408 225,408C204,408 179,407 148,405C117,403 93,401 75,399l0,103C137,513 202,518 269,518C334,518 383,511 415,497C447,482 468,461 478,433C488,404 493,364 493,311l0,-311l-125,0l-4,62l-7,0C342,34 320,15 292,6C264,-3 232,-8 196,-8C145,-8 107,4 82,27C57,50 44,89 44,143M345,129C355,145 360,170 360,204l0,16l-120,0C220,220 205,219 196,216C187,213 180,207 177,198C174,189 172,176 172,157C172,139 174,126 179,118C183,110 191,105 203,102C214,99 233,97 259,97C281,97 299,100 313,105C326,110 337,118 345,129M142,695C142,726 145,750 150,766C155,781 168,793 188,801C207,808 239,812 282,812C326,812 358,808 378,801C398,793 411,781 417,766C422,750 425,726 425,695C425,664 422,641 417,626C411,611 398,599 378,592C358,584 326,580 282,580C239,580 207,584 188,592C168,599 155,611 150,626C145,641 142,664 142,695M350,695C350,712 349,725 347,732C345,739 339,744 330,747C321,750 305,752 282,752C261,752 246,750 237,747C228,744 222,739 220,732C217,725 216,712 216,695C216,678 217,666 220,659C222,652 228,647 237,644C246,641 261,639 282,639C305,639 321,641 330,644C339,647 345,652 347,659C349,666 350,678 350,695z"
   id="glyph136" />
<glyph
   unicode="ã"
   horiz-adv-x="564"
   d="M44,143C44,183 49,214 58,237C67,260 84,276 107,287C130,297 162,302 204,302C239,302 291,301 360,298l0,19C360,347 357,368 351,380C344,392 332,400 315,403C298,406 268,408 225,408C204,408 179,407 148,405C117,403 93,401 75,399l0,103C137,513 202,518 269,518C334,518 383,511 415,497C447,482 468,461 478,433C488,404 493,364 493,311l0,-311l-125,0l-4,62l-7,0C342,34 320,15 292,6C264,-3 232,-8 196,-8C145,-8 107,4 82,27C57,50 44,89 44,143M345,129C355,145 360,170 360,204l0,16l-120,0C220,220 205,219 196,216C187,213 180,207 177,198C174,189 172,176 172,157C172,139 174,126 179,118C183,110 191,105 203,102C214,99 233,97 259,97C281,97 299,100 313,105C326,110 337,118 345,129M386,607C369,607 352,609 336,612C319,615 297,620 268,627C263,628 251,631 233,636C215,640 200,642 188,642C175,642 168,639 165,634C162,628 161,615 161,596l-70,0C91,630 93,656 96,675C99,693 107,707 120,717C132,727 151,732 178,732C195,732 212,730 229,727C246,724 268,719 295,712C334,702 361,697 376,697C389,697 396,700 399,706C402,711 403,724 403,743l69,0C472,708 470,682 467,664C464,646 456,632 444,622C431,612 412,607 386,607z"
   id="glyph138" />
<glyph
   unicode="æ"
   horiz-adv-x="867"
   d="M812,217l-318,0C494,180 497,155 502,140C507,125 520,115 539,110C558,105 590,102 637,102C676,102 728,105 792,110l0,-102C771,3 743,0 708,-3C673,-6 639,-8 606,-8C553,-8 512,-3 481,6C450,15 426,29 410,48C388,25 361,10 330,3C298,-4 261,-8 220,-8C159,-8 114,4 86,27C58,50 44,88 44,143C44,183 49,214 58,237C67,260 84,276 107,287C130,297 162,302 204,302C212,302 254,301 330,299l30,-1l0,19C360,347 357,368 351,380C344,392 332,400 315,403C298,406 268,408 225,408C204,408 177,407 144,405C111,403 88,401 75,399l0,103C135,513 199,518 267,518C307,518 341,515 368,508C395,501 416,490 433,475C468,504 522,518 597,518C664,518 713,509 744,492C774,474 793,448 801,414C808,379 812,326 812,254M494,297l192,0C686,332 683,357 678,373C673,389 664,400 651,405C638,410 619,412 593,412C563,412 541,409 528,404C515,398 506,387 502,372C497,357 495,332 494,297M360,217l-120,0C219,217 205,216 196,214C187,211 180,206 177,198C174,189 172,176 172,157C172,139 174,126 179,118C183,110 191,105 203,102C214,99 233,97 259,97C284,97 303,100 318,107C332,113 342,123 349,138C356,156 360,178 360,204z"
   id="glyph140" />
<glyph
   unicode="b"
   horiz-adv-x="584"
   d="M206,63l-7,0l-4,-63l-125,0l0,743l133,0l0,-289l7,0C225,478 244,495 269,504C294,513 324,518 360,518C403,518 436,510 461,494C485,478 503,451 514,414C525,376 531,323 531,255C531,187 525,134 514,96C503,58 485,31 460,16C435,0 400,-8 357,-8C322,-8 292,-3 266,7C240,17 220,36 206,63M398,255C398,301 396,334 392,353C387,372 379,384 366,390C353,396 331,399 300,399C279,399 262,397 250,392C237,387 228,380 221,369C214,358 209,344 207,326C204,308 203,284 203,255C203,226 204,202 207,184C209,166 214,151 221,140C228,129 237,122 250,117C262,112 279,110 300,110C331,110 353,113 366,119C379,125 387,138 392,157C396,176 398,208 398,255z"
   id="glyph142" />
<glyph
   unicode="c"
   horiz-adv-x="461"
   d="M268,-8C203,-8 155,2 124,21C93,40 74,67 65,103C56,138 52,189 52,256C52,319 57,369 66,405C75,441 96,469 127,489C158,508 204,518 266,518C291,518 318,517 345,514C372,511 394,507 413,502l0,-103C378,405 341,408 301,408C266,408 240,404 225,396C210,388 200,374 195,354C190,333 187,300 187,255C187,209 190,176 195,156C200,135 211,121 227,114C242,106 268,102 303,102C327,102 365,105 417,110l0,-103C398,2 374,-1 347,-4C320,-7 293,-8 268,-8z"
   id="glyph144" />
<glyph
   unicode="ç"
   horiz-adv-x="461"
   d="M417,7C398,2 376,-1 350,-4C324,-7 299,-8 274,-8l-35,-182l-125,0l0,5l69,184C144,7 115,22 96,43C77,64 65,91 60,124C55,156 52,200 52,256C52,319 57,369 66,405C75,441 96,469 127,489C158,508 204,518 266,518C291,518 318,517 345,514C372,511 394,507 413,502l0,-103C378,405 341,408 301,408C266,408 240,404 225,396C210,388 200,374 195,354C190,333 187,300 187,255C187,209 190,176 195,156C200,135 211,121 227,114C242,106 268,102 303,102C327,102 365,105 417,110z"
   id="glyph146" />
<glyph
   unicode="d"
   horiz-adv-x="584"
   d="M52,254C52,322 58,375 69,413C80,451 98,478 123,494C148,510 181,518 224,518C260,518 290,514 315,505C339,496 358,479 373,454l7,0l0,289l133,0l0,-743l-124,0l-4,63l-8,0C363,36 343,18 317,8C291,-3 261,-8 227,-8C184,-8 150,0 125,16C100,31 81,58 70,96C58,133 52,186 52,254M368,150C373,161 376,175 378,192C379,209 380,230 380,255C380,280 379,301 378,317C376,333 373,347 368,358C362,373 353,383 340,390C327,396 308,399 284,399C253,399 231,396 218,390C205,384 196,372 192,353C188,334 186,302 186,255C186,208 188,176 192,157C196,138 205,125 218,119C231,113 253,110 284,110C308,110 326,113 339,120C352,126 361,136 368,150z"
   id="glyph148" />
<glyph
   unicode="ð"
   horiz-adv-x="576"
   d="M52,254C52,322 56,374 64,410C72,445 90,472 118,490C145,508 188,517 246,517C285,517 321,512 353,501l3,4C343,538 328,568 311,595l-118,-18l0,83l67,10C237,695 214,718 189,739l0,4l143,0C354,723 372,705 386,690l117,18l0,-83l-64,-10C467,569 488,513 503,447C514,392 520,331 520,264C520,185 516,127 507,92C498,57 478,31 446,16C413,0 360,-8 286,-8C213,-8 161,0 128,16C95,31 75,56 66,91C57,125 52,179 52,254M387,254C387,303 386,338 383,357C380,376 371,389 358,397C344,404 320,408 286,408C251,408 228,405 215,398C202,391 194,379 191,360C188,341 186,306 186,254C186,202 188,167 191,149C194,130 202,118 215,112C228,105 251,102 286,102C321,102 346,105 359,112C372,118 380,130 383,149C386,167 387,202 387,254z"
   id="glyph150" />
<glyph
   unicode="e"
   horiz-adv-x="556"
   d="M503,215l-318,0C185,179 188,154 193,139C198,124 210,115 229,110C248,105 281,102 328,102C367,102 419,105 483,110l0,-102C462,3 434,0 399,-3C364,-6 330,-8 297,-8C223,-8 169,0 134,17C99,34 77,60 67,95C57,130 52,183 52,254C52,323 57,375 68,411C78,446 100,473 133,491C166,509 217,518 286,518C354,518 403,509 434,492C465,474 484,448 492,414C499,379 503,326 503,254M185,297l192,0C377,332 374,357 369,373C364,389 355,400 342,405C329,410 310,412 284,412C254,412 232,409 219,404C206,398 197,387 193,372C188,357 186,332 185,297z"
   id="glyph152" />
<glyph
   unicode="é"
   horiz-adv-x="556"
   d="M503,215l-318,0C185,179 188,154 193,139C198,124 210,115 229,110C248,105 281,102 328,102C367,102 419,105 483,110l0,-102C462,3 434,0 399,-3C364,-6 330,-8 297,-8C223,-8 169,0 134,17C99,34 77,60 67,95C57,130 52,183 52,254C52,323 57,375 68,411C78,446 100,473 133,491C166,509 217,518 286,518C354,518 403,509 434,492C465,474 484,448 492,414C499,379 503,326 503,254M185,297l192,0C377,332 374,357 369,373C364,389 355,400 342,405C329,410 310,412 284,412C254,412 232,409 219,404C206,398 197,387 193,372C188,357 186,332 185,297M228,599l0,5l94,139l134,0l0,-5l-132,-139z"
   id="glyph154" />
<glyph
   unicode="ê"
   horiz-adv-x="556"
   d="M503,215l-318,0C185,179 188,154 193,139C198,124 210,115 229,110C248,105 281,102 328,102C367,102 419,105 483,110l0,-102C462,3 434,0 399,-3C364,-6 330,-8 297,-8C223,-8 169,0 134,17C99,34 77,60 67,95C57,130 52,183 52,254C52,323 57,375 68,411C78,446 100,473 133,491C166,509 217,518 286,518C354,518 403,509 434,492C465,474 484,448 492,414C499,379 503,326 503,254M185,297l192,0C377,332 374,357 369,373C364,389 355,400 342,405C329,410 310,412 284,412C254,412 232,409 219,404C206,398 197,387 193,372C188,357 186,332 185,297M123,598l0,7l96,138l128,0l97,-138l0,-7l-88,0l-74,85l-72,-85z"
   id="glyph156" />
<glyph
   unicode="ë"
   horiz-adv-x="556"
   d="M503,215l-318,0C185,179 188,154 193,139C198,124 210,115 229,110C248,105 281,102 328,102C367,102 419,105 483,110l0,-102C462,3 434,0 399,-3C364,-6 330,-8 297,-8C223,-8 169,0 134,17C99,34 77,60 67,95C57,130 52,183 52,254C52,323 57,375 68,411C78,446 100,473 133,491C166,509 217,518 286,518C354,518 403,509 434,492C465,474 484,448 492,414C499,379 503,326 503,254M185,297l192,0C377,332 374,357 369,373C364,389 355,400 342,405C329,410 310,412 284,412C254,412 232,409 219,404C206,398 197,387 193,372C188,357 186,332 185,297M129,627l0,103l114,0l0,-103M328,627l0,103l114,0l0,-103z"
   id="glyph158" />
<glyph
   unicode="è"
   horiz-adv-x="556"
   d="M503,215l-318,0C185,179 188,154 193,139C198,124 210,115 229,110C248,105 281,102 328,102C367,102 419,105 483,110l0,-102C462,3 434,0 399,-3C364,-6 330,-8 297,-8C223,-8 169,0 134,17C99,34 77,60 67,95C57,130 52,183 52,254C52,323 57,375 68,411C78,446 100,473 133,491C166,509 217,518 286,518C354,518 403,509 434,492C465,474 484,448 492,414C499,379 503,326 503,254M185,297l192,0C377,332 374,357 369,373C364,389 355,400 342,405C329,410 310,412 284,412C254,412 232,409 219,404C206,398 197,387 193,372C188,357 186,332 185,297M247,599l-131,139l0,5l133,0l95,-139l0,-5z"
   id="glyph160" />
<glyph
   unicode="f"
   horiz-adv-x="404"
   d="M120,400l-98,0l0,110l98,0l0,44C120,615 127,658 141,684C155,709 179,725 212,732C245,739 301,742 379,742l0,-100C339,642 311,641 295,638C278,635 267,630 262,621C256,612 253,597 253,576l0,-66l126,0l0,-110l-126,0l0,-400l-133,0z"
   id="glyph162" />
<glyph
   unicode="g"
   horiz-adv-x="584"
   d="M90,-194l0,102C130,-94 178,-95 234,-95C281,-95 315,-92 334,-86C353,-80 366,-69 372,-52C377,-36 380,-8 380,33l0,31l-6,0C361,40 342,23 317,14C292,4 262,-1 227,-1C183,-1 149,7 124,22C99,37 80,64 69,101C58,138 52,190 52,257C52,324 58,377 70,415C81,452 100,479 125,495C150,510 184,518 227,518C302,518 352,494 377,447l8,0l4,63l124,0l0,-450C513,-9 508,-62 498,-98C487,-134 465,-161 430,-179C395,-197 340,-206 266,-206C234,-206 201,-205 168,-202C135,-200 109,-197 90,-194M364,149C371,160 375,173 377,190C379,207 380,229 380,257C380,285 379,308 377,325C375,342 371,355 365,365C358,378 348,387 336,392C323,397 306,400 284,400C253,400 231,397 218,391C205,385 196,373 192,354C188,335 186,303 186,257C186,212 188,180 192,162C196,144 205,132 218,126C231,120 253,117 284,117C306,117 323,120 336,125C348,130 357,138 364,149z"
   id="glyph164" />
<glyph
   unicode="h"
   horiz-adv-x="592"
   d="M388,270C388,313 386,342 383,359C379,376 371,387 360,392C349,397 329,399 300,399C271,399 250,395 237,386C223,377 214,364 210,345C205,326 203,299 203,264l0,-264l-133,0l0,743l133,0l0,-293l8,0C224,473 243,490 268,501C292,512 323,517 361,517C406,517 440,510 463,495C486,480 502,459 510,432C517,404 521,366 521,319l0,-319l-133,0z"
   id="glyph166" />
<glyph
   unicode="i"
   horiz-adv-x="275"
   d="M69,622l0,121l137,0l0,-121M70,0l0,510l134,0l0,-510z"
   id="glyph168" />
<glyph
   unicode="ı"
   horiz-adv-x="275"
   d="M70,0l0,510l134,0l0,-510z"
   id="glyph170" />
<glyph
   unicode="í"
   horiz-adv-x="275"
   d="M70,0l0,510l134,0l0,-510M73,599l0,5l94,139l134,0l0,-5l-132,-139z"
   id="glyph172" />
<glyph
   unicode="î"
   horiz-adv-x="275"
   d="M70,0l0,510l134,0l0,-510M-23,598l0,7l96,138l128,0l97,-138l0,-7l-88,0l-74,85l-72,-85z"
   id="glyph174" />
<glyph
   unicode="ï"
   horiz-adv-x="275"
   d="M70,0l0,510l134,0l0,-510M-19,627l0,103l114,0l0,-103M180,627l0,103l114,0l0,-103z"
   id="glyph176" />
<glyph
   unicode="ì"
   horiz-adv-x="275"
   d="M70,0l0,510l134,0l0,-510M108,599l-131,139l0,5l133,0l95,-139l0,-5z"
   id="glyph178" />
<glyph
   unicode="j"
   horiz-adv-x="275"
   d="M69,622l0,121l137,0l0,-121M-17,-98C10,-98 30,-96 42,-93C54,-90 62,-85 65,-78C68,-71 70,-60 70,-45l0,555l134,0l0,-526C204,-73 198,-114 186,-139C174,-164 153,-181 124,-188C95,-196 48,-200 -17,-200z"
   id="glyph180" />
<glyph
   unicode="k"
   horiz-adv-x="557"
   d="M389,0l-144,200l-42,0l0,-200l-133,0l0,743l133,0l0,-433l42,0l146,200l144,0l-183,-245l186,-265z"
   id="glyph182" />
<glyph
   unicode="l"
   horiz-adv-x="275"
   d="M70,0l0,743l134,0l0,-743z"
   id="glyph184" />
<glyph
   unicode="m"
   horiz-adv-x="870"
   d="M666,270C666,312 664,342 661,359C658,376 651,387 641,392C630,397 612,399 587,399C562,399 543,395 531,387C519,378 511,365 507,347C503,328 501,301 501,264l0,-264l-133,0l0,270C368,312 366,342 363,359C360,376 353,387 343,392C332,397 314,399 289,399C264,399 245,395 233,387C221,378 213,365 209,346C205,327 203,300 203,264l0,-264l-133,0l0,510l125,0l4,-63l7,0C219,471 237,489 262,501C286,512 316,518 353,518C393,518 424,512 445,501C466,490 481,472 490,447l8,0C523,494 573,518 648,518C689,518 721,511 743,496C765,481 780,460 788,432C795,403 799,365 799,318l0,-318l-133,0z"
   id="glyph186" />
<glyph
   unicode="n"
   horiz-adv-x="592"
   d="M388,270C388,313 386,342 383,359C379,376 371,387 360,392C349,397 329,399 300,399C271,399 250,395 237,386C223,377 214,364 210,345C205,326 203,299 203,264l0,-264l-133,0l0,510l125,0l4,-63l8,0C220,472 239,490 264,501C289,512 322,518 361,518C406,518 440,511 463,496C486,481 502,460 510,432C517,404 521,366 521,319l0,-319l-133,0z"
   id="glyph188" />
<glyph
   unicode="ñ"
   horiz-adv-x="592"
   d="M388,270C388,313 386,342 383,359C379,376 371,387 360,392C349,397 329,399 300,399C271,399 250,395 237,386C223,377 214,364 210,345C205,326 203,299 203,264l0,-264l-133,0l0,510l125,0l4,-63l8,0C220,472 239,490 264,501C289,512 322,518 361,518C406,518 440,511 463,496C486,481 502,460 510,432C517,404 521,366 521,319l0,-319l-133,0M403,607C386,607 369,609 353,612C336,615 314,620 285,627C280,628 268,631 250,636C232,640 217,642 205,642C192,642 185,639 182,634C179,628 178,615 178,596l-70,0C108,630 110,656 113,675C116,693 124,707 137,717C149,727 168,732 195,732C212,732 229,730 246,727C263,724 285,719 312,712C351,702 378,697 393,697C406,697 413,700 416,706C419,711 420,724 420,743l69,0C489,708 487,682 484,664C481,646 473,632 461,622C448,612 429,607 403,607z"
   id="glyph190" />
<glyph
   unicode="o"
   horiz-adv-x="572"
   d="M52,256C52,333 57,388 66,423C75,457 95,481 127,496C159,511 212,518 286,518C360,518 413,511 445,496C477,481 498,457 507,423C516,388 520,333 520,256C520,179 516,124 507,89C498,54 477,30 445,15C412,0 359,-8 286,-8C213,-8 160,0 128,15C95,30 75,54 66,89C57,124 52,179 52,256M386,256C386,308 385,343 382,362C379,380 371,392 358,399C345,405 321,408 286,408C251,408 228,405 215,399C202,392 194,380 191,362C188,343 186,308 186,256C186,204 188,169 191,150C194,131 202,119 215,112C228,105 251,102 286,102C321,102 345,105 358,112C371,119 379,131 382,150C385,169 386,204 386,256z"
   id="glyph192" />
<glyph
   unicode="ó"
   horiz-adv-x="572"
   d="M52,256C52,333 57,388 66,423C75,457 95,481 127,496C159,511 212,518 286,518C360,518 413,511 445,496C477,481 498,457 507,423C516,388 520,333 520,256C520,179 516,124 507,89C498,54 477,30 445,15C412,0 359,-8 286,-8C213,-8 160,0 128,15C95,30 75,54 66,89C57,124 52,179 52,256M386,256C386,308 385,343 382,362C379,380 371,392 358,399C345,405 321,408 286,408C251,408 228,405 215,399C202,392 194,380 191,362C188,343 186,308 186,256C186,204 188,169 191,150C194,131 202,119 215,112C228,105 251,102 286,102C321,102 345,105 358,112C371,119 379,131 382,150C385,169 386,204 386,256M231,599l0,5l94,139l134,0l0,-5l-132,-139z"
   id="glyph194" />
<glyph
   unicode="ô"
   horiz-adv-x="572"
   d="M52,256C52,333 57,388 66,423C75,457 95,481 127,496C159,511 212,518 286,518C360,518 413,511 445,496C477,481 498,457 507,423C516,388 520,333 520,256C520,179 516,124 507,89C498,54 477,30 445,15C412,0 359,-8 286,-8C213,-8 160,0 128,15C95,30 75,54 66,89C57,124 52,179 52,256M386,256C386,308 385,343 382,362C379,380 371,392 358,399C345,405 321,408 286,408C251,408 228,405 215,399C202,392 194,380 191,362C188,343 186,308 186,256C186,204 188,169 191,150C194,131 202,119 215,112C228,105 251,102 286,102C321,102 345,105 358,112C371,119 379,131 382,150C385,169 386,204 386,256M126,598l0,7l96,138l128,0l97,-138l0,-7l-88,0l-74,85l-72,-85z"
   id="glyph196" />
<glyph
   unicode="ö"
   horiz-adv-x="572"
   d="M52,256C52,333 57,388 66,423C75,457 95,481 127,496C159,511 212,518 286,518C360,518 413,511 445,496C477,481 498,457 507,423C516,388 520,333 520,256C520,179 516,124 507,89C498,54 477,30 445,15C412,0 359,-8 286,-8C213,-8 160,0 128,15C95,30 75,54 66,89C57,124 52,179 52,256M386,256C386,308 385,343 382,362C379,380 371,392 358,399C345,405 321,408 286,408C251,408 228,405 215,399C202,392 194,380 191,362C188,343 186,308 186,256C186,204 188,169 191,150C194,131 202,119 215,112C228,105 251,102 286,102C321,102 345,105 358,112C371,119 379,131 382,150C385,169 386,204 386,256M131,627l0,103l114,0l0,-103M330,627l0,103l114,0l0,-103z"
   id="glyph198" />
<glyph
   unicode="ò"
   horiz-adv-x="572"
   d="M52,256C52,333 57,388 66,423C75,457 95,481 127,496C159,511 212,518 286,518C360,518 413,511 445,496C477,481 498,457 507,423C516,388 520,333 520,256C520,179 516,124 507,89C498,54 477,30 445,15C412,0 359,-8 286,-8C213,-8 160,0 128,15C95,30 75,54 66,89C57,124 52,179 52,256M386,256C386,308 385,343 382,362C379,380 371,392 358,399C345,405 321,408 286,408C251,408 228,405 215,399C202,392 194,380 191,362C188,343 186,308 186,256C186,204 188,169 191,150C194,131 202,119 215,112C228,105 251,102 286,102C321,102 345,105 358,112C371,119 379,131 382,150C385,169 386,204 386,256M249,599l-131,139l0,5l133,0l95,-139l0,-5z"
   id="glyph200" />
<glyph
   unicode="ø"
   horiz-adv-x="572"
   d="M520,256C520,179 516,124 507,89C498,54 477,30 445,15C412,0 359,-8 286,-8C247,-8 214,-6 186,-2l-31,-53l-103,0l50,85C81,47 67,73 61,106C55,139 52,189 52,256C52,333 57,388 66,423C75,457 95,481 127,496C159,511 212,518 286,518C325,518 358,516 386,512l31,53l103,0l-50,-85C491,463 505,438 511,405C517,372 520,323 520,256M187,175l137,232C317,408 304,408 286,408C251,408 228,405 215,399C202,392 194,380 191,362C188,343 186,308 186,256C186,216 186,189 187,175M386,256C386,295 386,322 385,335l-137,-232C255,102 268,102 286,102C321,102 345,105 358,112C371,119 379,131 382,150C385,169 386,204 386,256z"
   id="glyph202" />
<glyph
   unicode="õ"
   horiz-adv-x="572"
   d="M52,256C52,333 57,388 66,423C75,457 95,481 127,496C159,511 212,518 286,518C360,518 413,511 445,496C477,481 498,457 507,423C516,388 520,333 520,256C520,179 516,124 507,89C498,54 477,30 445,15C412,0 359,-8 286,-8C213,-8 160,0 128,15C95,30 75,54 66,89C57,124 52,179 52,256M386,256C386,308 385,343 382,362C379,380 371,392 358,399C345,405 321,408 286,408C251,408 228,405 215,399C202,392 194,380 191,362C188,343 186,308 186,256C186,204 188,169 191,150C194,131 202,119 215,112C228,105 251,102 286,102C321,102 345,105 358,112C371,119 379,131 382,150C385,169 386,204 386,256M392,607C375,607 358,609 342,612C325,615 303,620 274,627C269,628 257,631 239,636C221,640 206,642 194,642C181,642 174,639 171,634C168,628 167,615 167,596l-70,0C97,630 99,656 102,675C105,693 113,707 126,717C138,727 157,732 184,732C201,732 218,730 235,727C252,724 274,719 301,712C340,702 367,697 382,697C395,697 402,700 405,706C408,711 409,724 409,743l69,0C478,708 476,682 473,664C470,646 462,632 450,622C437,612 418,607 392,607z"
   id="glyph204" />
<glyph
   unicode="œ"
   horiz-adv-x="894"
   d="M840,215l-318,0C522,178 525,153 530,139C535,124 547,115 566,110C585,105 618,102 665,102C704,102 756,105 820,110l0,-102C799,3 771,0 737,-3C702,-6 669,-8 636,-8C593,-8 556,-4 527,3C498,10 474,20 455,35C438,20 416,9 389,2C362,-5 327,-8 285,-8C212,-8 159,0 127,15C95,30 75,54 66,89C57,124 52,179 52,256C52,333 57,388 66,423C75,457 95,481 127,496C159,511 212,518 285,518C327,518 362,515 389,508C416,501 438,489 455,474C490,503 547,518 624,518C692,518 741,509 772,492C802,474 821,448 829,414C836,379 840,326 840,254M522,297l191,0C713,332 710,357 705,373C700,389 691,400 678,405C665,410 646,412 620,412C591,412 569,409 556,404C543,398 534,387 530,372C525,357 523,332 522,297M386,256C386,308 385,343 382,362C379,380 371,392 358,399C345,405 321,408 286,408C251,408 228,405 215,399C202,392 194,380 191,362C188,343 186,308 186,256C186,204 188,169 191,150C194,131 202,119 215,112C228,105 251,102 286,102C321,102 345,105 358,112C371,119 379,131 382,150C385,169 386,204 386,256z"
   id="glyph206" />
<glyph
   unicode="p"
   horiz-adv-x="584"
   d="M70,510l125,0l4,-63l7,0C220,474 240,492 267,503C293,513 323,518 357,518C400,518 435,510 460,495C485,479 503,452 514,415C525,377 531,324 531,256C531,188 525,135 514,97C503,59 485,32 461,16C436,0 403,-8 360,-8C324,-8 294,-3 270,6C245,15 226,32 211,56l-8,0l0,-255l-133,0M398,255C398,301 396,334 392,353C387,372 379,385 366,391C353,397 331,400 300,400C277,400 259,397 246,391C233,385 223,375 217,362C212,351 208,337 206,320C204,303 203,282 203,255C203,228 204,206 206,190C207,173 211,160 216,149C222,136 232,126 245,120C258,114 277,111 300,111C331,111 353,114 366,120C379,126 387,139 392,158C396,177 398,209 398,255z"
   id="glyph208" />
<glyph
   unicode="þ"
   horiz-adv-x="584"
   d="M70,743l133,0l0,-294l8,0C225,476 244,495 269,504C293,513 322,518 357,518C400,518 435,510 460,495C485,479 503,452 514,415C525,377 531,324 531,256C531,188 525,135 514,97C503,59 485,32 461,16C436,0 403,-8 360,-8C324,-8 294,-3 270,6C245,15 226,32 211,56l-8,0l0,-245l-133,0M398,255C398,301 396,334 392,353C387,372 379,385 366,391C353,397 331,400 300,400C278,400 261,397 248,392C235,387 226,378 219,365C212,354 208,340 206,323C204,306 203,283 203,255C203,229 204,208 206,192C207,176 210,163 215,153C221,138 231,127 244,121C257,114 275,111 300,111C331,111 353,114 366,120C379,126 387,139 392,158C396,177 398,209 398,255z"
   id="glyph210" />
<glyph
   unicode="q"
   horiz-adv-x="585"
   d="M380,56l-6,0C359,31 339,15 315,6C290,-3 260,-8 224,-8C181,-8 148,0 123,16C98,31 80,58 69,96C58,134 52,187 52,255C52,323 58,376 70,414C81,451 100,478 125,494C150,510 184,518 227,518C261,518 291,513 317,503C343,492 363,474 377,447l8,0l4,63l124,0l0,-709l-133,0M369,151C376,169 380,204 380,255C380,285 379,309 377,326C374,343 370,358 363,369C356,380 347,388 334,393C321,398 305,400 284,400C253,400 231,397 218,391C205,385 196,373 192,354C188,335 186,302 186,255C186,208 188,176 192,157C196,138 205,126 218,120C231,114 253,111 284,111C308,111 327,114 340,121C353,127 362,137 369,151z"
   id="glyph212" />
<glyph
   unicode="r"
   horiz-adv-x="394"
   d="M70,510l125,0l4,-88l8,0C220,458 239,483 265,497C291,511 326,518 370,518l0,-131C326,387 292,381 268,370C244,358 227,339 218,312C208,285 203,248 203,200l0,-200l-133,0z"
   id="glyph214" />
<glyph
   unicode="s"
   horiz-adv-x="498"
   d="M60,6l0,104C84,107 112,105 145,104C177,102 205,101 229,101C259,101 281,103 295,106C308,109 317,113 321,120C325,126 327,136 327,150C327,163 326,173 324,178C321,183 317,187 310,190C303,192 290,194 273,196l-118,15C124,214 101,222 85,235C69,248 58,264 53,285C47,305 44,331 44,364C44,408 53,441 70,464C87,486 110,501 139,508C168,515 205,518 251,518C280,518 312,517 345,514C378,511 404,507 425,502l0,-102C368,406 316,409 270,409C242,409 221,408 208,407C195,405 185,401 179,394C173,387 170,377 170,363C170,350 171,341 173,336C175,331 179,327 186,325C192,322 203,320 218,318l128,-15C372,300 393,294 408,286C423,277 434,263 442,243C449,222 453,192 453,153C453,107 445,73 430,50C415,27 393,11 366,4C339,-4 302,-8 257,-8C227,-8 194,-7 157,-4C120,-1 87,2 60,6z"
   id="glyph216" />
<glyph
   unicode="ß"
   horiz-adv-x="602"
   d="M274,0l0,110l33,0C343,110 368,112 381,117C394,122 403,133 408,150C413,167 415,199 415,244C415,284 412,313 406,331C400,348 390,360 376,366C361,371 339,374 308,374l-20,0l0,111l20,0C335,485 356,487 370,491C383,494 393,501 398,511C403,521 406,536 406,555C406,580 403,598 398,610C392,622 382,630 368,634C354,638 333,640 304,640C278,640 258,638 244,633C230,628 220,619 213,604C206,589 203,567 203,536l0,-536l-133,0l0,553C70,599 77,636 92,665C107,694 131,715 166,729C201,743 248,750 308,750C369,750 416,743 450,730C483,717 507,697 520,672C533,647 540,614 540,574C540,532 531,500 512,478C493,456 464,442 424,436l0,-4C467,424 498,406 519,377C539,348 549,302 549,239C549,178 543,130 532,97C521,64 499,39 468,24C437,8 390,0 327,0z"
   id="glyph218" />
<glyph
   unicode="t"
   horiz-adv-x="390"
   d="M119,0l0,400l-98,0l0,110l98,0l0,148l133,0l0,-148l116,0l0,-110l-116,0l0,-400z"
   id="glyph220" />
<glyph
   unicode="u"
   horiz-adv-x="592"
   d="M393,63l-8,0C372,38 353,20 328,9C303,-2 270,-8 231,-8C186,-8 152,-1 129,14C106,29 90,50 82,78C74,106 70,144 70,191l0,319l133,0l0,-270C203,198 205,169 209,152C212,135 220,124 232,119C243,114 263,111 292,111C320,111 341,115 355,124C368,133 377,146 382,165C386,183 388,210 388,246l0,264l133,0l0,-510l-124,0z"
   id="glyph222" />
<glyph
   unicode="ú"
   horiz-adv-x="592"
   d="M393,63l-8,0C372,38 353,20 328,9C303,-2 270,-8 231,-8C186,-8 152,-1 129,14C106,29 90,50 82,78C74,106 70,144 70,191l0,319l133,0l0,-270C203,198 205,169 209,152C212,135 220,124 232,119C243,114 263,111 292,111C320,111 341,115 355,124C368,133 377,146 382,165C386,183 388,210 388,246l0,264l133,0l0,-510l-124,0M250,599l0,5l94,139l134,0l0,-5l-132,-139z"
   id="glyph224" />
<glyph
   unicode="û"
   horiz-adv-x="592"
   d="M393,63l-8,0C372,38 353,20 328,9C303,-2 270,-8 231,-8C186,-8 152,-1 129,14C106,29 90,50 82,78C74,106 70,144 70,191l0,319l133,0l0,-270C203,198 205,169 209,152C212,135 220,124 232,119C243,114 263,111 292,111C320,111 341,115 355,124C368,133 377,146 382,165C386,183 388,210 388,246l0,264l133,0l0,-510l-124,0M136,598l0,7l96,138l128,0l97,-138l0,-7l-88,0l-74,85l-72,-85z"
   id="glyph226" />
<glyph
   unicode="ü"
   horiz-adv-x="592"
   d="M393,63l-8,0C372,38 353,20 328,9C303,-2 270,-8 231,-8C186,-8 152,-1 129,14C106,29 90,50 82,78C74,106 70,144 70,191l0,319l133,0l0,-270C203,198 205,169 209,152C212,135 220,124 232,119C243,114 263,111 292,111C320,111 341,115 355,124C368,133 377,146 382,165C386,183 388,210 388,246l0,264l133,0l0,-510l-124,0M139,627l0,103l114,0l0,-103M338,627l0,103l114,0l0,-103z"
   id="glyph228" />
<glyph
   unicode="ù"
   horiz-adv-x="592"
   d="M393,63l-8,0C372,38 353,20 328,9C303,-2 270,-8 231,-8C186,-8 152,-1 129,14C106,29 90,50 82,78C74,106 70,144 70,191l0,319l133,0l0,-270C203,198 205,169 209,152C212,135 220,124 232,119C243,114 263,111 292,111C320,111 341,115 355,124C368,133 377,146 382,165C386,183 388,210 388,246l0,264l133,0l0,-510l-124,0M259,599l-131,139l0,5l133,0l95,-139l0,-5z"
   id="glyph230" />
<glyph
   unicode="v"
   horiz-adv-x="540"
   d="M182,0l-164,510l137,0l112,-382l10,0l110,382l135,0l-163,-510z"
   id="glyph232" />
<glyph
   unicode="w"
   horiz-adv-x="831"
   d="M504,0l-85,292l-8,0l-84,-292l-162,0l-142,510l134,0l90,-363l8,0l101,363l122,0l101,-363l9,0l89,363l131,0l-143,-510z"
   id="glyph234" />
<glyph
   unicode="x"
   horiz-adv-x="557"
   d="M390,0l-113,163l-6,0l-112,-163l-140,0l177,259l-171,251l147,0l106,-155l7,0l105,155l141,0l-171,-250l178,-260z"
   id="glyph236" />
<glyph
   unicode="y"
   horiz-adv-x="592"
   d="M106,-195l0,102C176,-95 223,-96 248,-96C293,-96 326,-93 345,-86C364,-80 376,-69 381,-53C386,-37 388,-9 388,30l0,36l-7,0C368,43 350,26 326,15C301,4 270,-1 231,-1C186,-1 152,6 129,21C106,36 90,57 82,85C74,112 70,150 70,197l0,313l133,0l0,-264C203,203 205,174 209,157C212,140 220,130 232,125C243,120 263,117 292,117C321,117 342,121 355,130C368,139 377,152 382,170C386,188 388,215 388,251l0,259l133,0l0,-452C521,-11 516,-64 506,-99C496,-134 474,-161 440,-179C405,-197 352,-206 279,-206C248,-206 217,-205 185,-203C153,-201 127,-198 106,-195z"
   id="glyph238" />
<glyph
   unicode="ý"
   horiz-adv-x="592"
   d="M106,-195l0,102C176,-95 223,-96 248,-96C293,-96 326,-93 345,-86C364,-80 376,-69 381,-53C386,-37 388,-9 388,30l0,36l-7,0C368,43 350,26 326,15C301,4 270,-1 231,-1C186,-1 152,6 129,21C106,36 90,57 82,85C74,112 70,150 70,197l0,313l133,0l0,-264C203,203 205,174 209,157C212,140 220,130 232,125C243,120 263,117 292,117C321,117 342,121 355,130C368,139 377,152 382,170C386,188 388,215 388,251l0,259l133,0l0,-452C521,-11 516,-64 506,-99C496,-134 474,-161 440,-179C405,-197 352,-206 279,-206C248,-206 217,-205 185,-203C153,-201 127,-198 106,-195M246,599l0,5l94,139l134,0l0,-5l-132,-139z"
   id="glyph240" />
<glyph
   unicode="ÿ"
   horiz-adv-x="592"
   d="M106,-195l0,102C176,-95 223,-96 248,-96C293,-96 326,-93 345,-86C364,-80 376,-69 381,-53C386,-37 388,-9 388,30l0,36l-7,0C368,43 350,26 326,15C301,4 270,-1 231,-1C186,-1 152,6 129,21C106,36 90,57 82,85C74,112 70,150 70,197l0,313l133,0l0,-264C203,203 205,174 209,157C212,140 220,130 232,125C243,120 263,117 292,117C321,117 342,121 355,130C368,139 377,152 382,170C386,188 388,215 388,251l0,259l133,0l0,-452C521,-11 516,-64 506,-99C496,-134 474,-161 440,-179C405,-197 352,-206 279,-206C248,-206 217,-205 185,-203C153,-201 127,-198 106,-195M139,627l0,103l114,0l0,-103M338,627l0,103l114,0l0,-103z"
   id="glyph242" />
<glyph
   unicode="z"
   horiz-adv-x="520"
   d="M48,0l0,103l252,297l-240,0l0,110l410,0l0,-103l-253,-297l255,0l0,-110z"
   id="glyph244" />
<glyph
   unicode="ª"
   horiz-adv-x="414"
   d="M38,425C38,454 41,476 48,492C54,508 65,520 81,527C97,534 120,538 151,538C177,538 215,537 264,534l0,16C264,571 262,585 258,594C254,602 246,607 233,610C220,612 196,613 163,613C142,613 108,611 59,606l0,78C106,692 153,696 200,696C248,696 284,691 308,680C331,669 347,654 354,633C361,612 364,582 364,544l0,-227l-94,0l-5,43l-5,0C247,341 231,329 212,323C193,316 171,313 146,313C108,313 81,322 64,339C47,356 38,385 38,425M256,410C261,421 264,439 264,464l0,15l-84,0C160,479 147,476 141,471C135,465 132,453 132,434C132,421 134,411 137,405C140,399 145,395 154,392C162,389 175,388 193,388C211,388 225,390 235,393C244,396 251,401 256,410z"
   id="glyph246" />
<glyph
   unicode="º"
   horiz-adv-x="430"
   d="M44,504C44,557 48,597 55,623C62,648 77,667 101,679C124,690 162,696 215,696C268,696 306,690 330,679C353,667 369,648 376,623C383,597 386,557 386,504C386,451 383,411 376,386C369,361 353,342 330,331C306,319 268,313 215,313C162,313 124,319 101,331C77,342 62,361 55,386C48,411 44,451 44,504M285,504C285,541 284,566 282,579C280,592 274,602 265,607C256,612 239,614 215,614C191,614 174,612 165,607C156,602 150,592 148,579C146,566 145,541 145,504C145,467 146,442 148,429C150,416 156,407 165,402C174,397 191,395 215,395C239,395 256,397 265,402C274,407 280,416 282,429C284,442 285,467 285,504z"
   id="glyph248" />
<glyph
   unicode="0"
   horiz-adv-x="664"
   d="M62,344C62,451 67,527 77,572C87,617 110,649 147,668C184,687 245,696 332,696C419,696 480,687 517,668C554,649 577,617 587,572C597,527 602,451 602,344C602,237 597,161 587,116C577,71 554,39 517,20C480,1 419,-8 332,-8C245,-8 184,1 147,20C110,39 87,71 77,116C67,161 62,237 62,344M460,344C460,426 458,481 454,510C449,539 439,557 424,565C408,572 377,576 332,576C287,576 256,572 241,565C225,557 215,539 211,510C206,481 204,426 204,344C204,262 206,207 211,178C215,149 225,131 241,124C256,116 287,112 332,112C377,112 408,116 424,124C439,131 449,149 454,178C458,207 460,262 460,344z"
   id="glyph250" />
<glyph
   unicode="1"
   horiz-adv-x="388"
   d="M158,0l0,530l-134,-57l0,123l178,92l98,0l0,-688z"
   id="glyph252" />
<glyph
   unicode="2"
   horiz-adv-x="610"
   d="M196,122l354,0l0,-122l-492,0l0,92C58,149 60,192 65,221C70,250 80,274 97,293C113,312 139,329 176,344l23,9C228,366 273,384 333,408C356,417 372,425 382,432C391,439 398,447 402,457C405,466 407,480 407,499C407,522 403,539 395,550C387,561 374,568 355,571C336,574 306,576 266,576C243,576 214,575 177,572C140,569 105,566 72,561l0,113C103,681 141,686 186,690C231,694 272,696 310,696C361,696 403,692 437,683C471,674 498,656 519,629C540,601 550,561 550,508C550,467 546,434 537,409C528,383 515,362 498,347C481,332 458,318 429,307C376,286 342,272 329,267l-79,-31C238,231 229,227 223,224C216,220 211,215 208,210C203,203 200,195 199,186C197,176 196,163 196,147z"
   id="glyph254" />
<glyph
   unicode="3"
   horiz-adv-x="605"
   d="M53,13l0,111C134,116 202,112 256,112C295,112 323,114 342,117C361,120 375,128 384,140C393,152 398,171 398,198C398,223 395,241 389,254C382,267 372,276 357,281C342,286 320,288 292,288l-120,0l0,120l120,0C328,408 354,414 369,425C384,436 392,458 392,491C392,518 388,537 380,549C371,560 357,568 338,571C319,574 288,576 246,576C218,576 186,575 151,572C115,569 84,566 57,563l0,112C85,681 119,686 159,690C199,694 236,696 270,696C368,696 437,681 477,652C516,622 536,576 536,515C536,466 526,429 507,404C488,379 458,362 418,353l0,-4C460,340 491,323 512,299C533,275 543,237 543,184C543,143 536,108 521,81C506,53 478,31 438,16C398,0 342,-8 269,-8C236,-8 199,-6 158,-2C117,2 82,7 53,13z"
   id="glyph256" />
<glyph
   unicode="4"
   horiz-adv-x="646"
   d="M377,0l0,143l-339,0l0,107l251,438l156,0l-254,-424l187,0l39,183l102,0l0,-183l91,0l0,-121l-91,0l0,-143z"
   id="glyph258" />
<glyph
   unicode="5"
   horiz-adv-x="622"
   d="M275,112C316,112 346,115 366,120C386,125 400,135 408,149C415,162 419,183 419,210C419,239 415,261 407,275C398,288 384,297 364,301C344,305 312,307 269,307C244,307 213,306 178,304C143,301 110,298 81,295l0,393l431,0l0,-122l-304,0l0,-147C250,424 295,426 342,426C401,426 446,418 478,403C510,388 532,366 545,337C557,308 563,269 563,222C563,165 556,121 541,88C526,55 498,31 459,16C420,0 363,-8 290,-8C257,-8 220,-6 179,-2C138,1 102,6 73,12l0,112C155,116 222,112 275,112z"
   id="glyph260" />
<glyph
   unicode="6"
   horiz-adv-x="663"
   d="M93,83C82,106 74,139 69,180C64,221 62,275 62,340C62,397 64,444 69,483C73,522 80,554 91,579C108,623 137,654 177,671C216,688 274,696 350,696C378,696 412,694 453,690C494,686 531,681 566,675l0,-113C485,571 423,576 378,576C325,576 286,571 263,562C240,552 224,534 217,508C210,482 206,439 206,379l6,0C242,411 298,427 379,427C434,427 478,422 510,411C541,400 565,381 581,352C597,323 605,281 605,226C605,165 598,118 584,85C570,52 545,29 508,14C471,-1 416,-8 343,-8C292,-8 252,-6 221,-1C190,3 165,12 144,25C123,38 106,57 93,83M466,207C466,239 463,262 456,276C449,289 437,298 420,302C403,306 374,308 335,308C297,308 269,305 251,300C233,294 221,285 216,274C211,263 208,246 208,223C208,188 212,162 220,147C227,132 239,122 256,118C272,113 298,111 335,111C374,111 402,113 419,117C436,121 449,130 456,143C463,156 466,178 466,207z"
   id="glyph262" />
<glyph
   unicode="7"
   horiz-adv-x="568"
   d="M114,0l261,566l-339,0l0,122l492,0l0,-111l-257,-577z"
   id="glyph264" />
<glyph
   unicode="8"
   horiz-adv-x="681"
   d="M61,184C61,221 66,251 75,273C84,294 98,311 116,322C133,333 157,342 186,349l0,4C145,362 115,379 96,404C77,429 67,466 67,515C67,556 75,589 92,616C109,642 137,662 177,676C216,689 271,696 340,696C409,696 464,689 504,676C543,662 571,642 588,616C605,589 613,556 613,515C613,466 603,429 584,404C565,379 535,362 494,353l0,-4C523,342 547,333 565,322C582,311 596,294 605,273C614,251 619,221 619,184C619,141 611,106 596,79C581,51 553,30 512,15C471,0 414,-8 340,-8C265,-8 208,0 167,15C126,30 99,51 84,78C69,105 61,141 61,184M469,490C469,516 466,535 459,547C452,559 440,567 423,572C406,576 378,578 340,578C302,578 274,576 257,572C240,567 228,559 222,548C215,536 212,517 212,490C212,465 215,446 222,434C229,422 241,414 258,410C275,406 303,404 340,404C377,404 405,406 423,410C440,414 452,422 459,434C466,446 469,465 469,490M475,199C475,227 471,247 464,260C457,273 444,281 426,285C407,289 379,291 340,291C301,291 272,289 254,285C236,281 224,273 217,260C210,247 206,227 206,199C206,172 210,152 218,140C225,127 238,119 256,116C273,112 301,110 340,110C378,110 406,112 425,116C443,119 456,127 464,140C471,152 475,172 475,199z"
   id="glyph266" />
<glyph
   unicode="9"
   horiz-adv-x="663"
   d="M96,13l0,113C177,117 239,112 284,112C337,112 376,117 399,127C422,136 438,154 446,180C453,206 457,249 457,309l-6,0C421,277 365,261 284,261C229,261 185,266 153,277C121,288 97,307 82,336C66,365 58,407 58,462C58,523 65,570 79,603C93,636 119,659 156,674C193,689 247,696 319,696C374,696 418,693 451,688C483,683 509,672 530,657C550,641 565,617 576,586C585,560 592,528 596,490C599,452 601,405 601,348C601,285 598,232 593,191C587,150 577,116 563,90C544,54 515,29 476,14C437,-1 382,-8 312,-8C284,-8 250,-6 209,-2C168,2 131,7 96,13M454,465C454,500 450,526 443,541C435,556 423,566 407,571C390,575 364,577 327,577C289,577 261,575 244,571C227,567 215,558 208,545C201,532 197,510 197,481C197,449 200,426 207,413C214,399 226,390 243,386C260,382 288,380 327,380C365,380 393,383 411,389C429,394 441,403 446,414C451,425 454,442 454,465z"
   id="glyph268" />
<glyph
   unicode="¹"
   horiz-adv-x="261"
   d="M108,315l0,270l-71,-30l0,81l101,52l61,0l0,-373z"
   id="glyph270" />
<glyph
   unicode="²"
   horiz-adv-x="370"
   d="M135,396l188,0l0,-81l-276,0l0,56C47,400 48,422 50,437C52,452 57,464 64,474C71,484 82,493 97,500C114,508 147,522 197,541C212,547 221,553 225,558C229,563 231,571 231,584C231,594 229,601 226,606C222,610 216,613 207,614C198,615 184,616 165,616C136,616 99,613 54,607l0,77C73,687 95,690 120,693C145,695 167,696 188,696C217,696 241,694 260,689C279,684 294,674 306,659C317,643 323,620 323,589C323,558 318,534 307,517C296,500 281,487 260,478l-93,-35C155,439 147,435 142,430C137,425 135,418 135,409z"
   id="glyph272" />
<glyph
   unicode="³"
   horiz-adv-x="365"
   d="M40,319l0,74C93,388 131,386 156,386C183,386 201,388 210,393C219,398 223,409 223,426C223,443 220,454 213,460C206,465 194,468 175,468l-72,0l0,70l72,0C191,538 202,541 209,546C216,551 219,562 219,578C219,595 215,605 206,610C197,614 178,616 150,616C122,616 86,613 42,608l0,76C84,692 125,696 164,696C218,696 256,688 279,671C301,654 312,628 312,593C312,548 295,520 261,507l0,-4C298,492 316,463 316,417C316,380 305,353 284,335C262,316 222,307 163,307C123,307 82,311 40,319z"
   id="glyph274" />
<glyph
   unicode="⁄"
   horiz-adv-x="156"
   d="M-191,0l448,688l90,0l-448,-688z"
   id="glyph276" />
<glyph
   unicode="½"
   horiz-adv-x="795"
   d="M108,315l0,270l-71,-30l0,81l101,52l61,0l0,-373M527,688l89,0l-448,-688l-89,0M555,81l188,0l0,-81l-277,0l0,55C466,97 469,127 475,144C481,161 495,174 516,185C530,192 564,205 617,226C632,232 641,238 645,243C649,248 651,256 651,269C651,283 647,292 638,296C629,299 612,301 585,301C556,301 518,298 473,292l0,76C492,372 514,375 539,378C564,380 586,381 607,381C636,381 661,379 680,374C699,369 714,359 726,344C737,328 743,305 743,274C743,243 738,218 727,201C716,184 700,171 679,162l-62,-23C601,134 591,130 588,129C576,124 568,120 563,115C558,110 555,103 555,94z"
   id="glyph278" />
<glyph
   unicode="¼"
   horiz-adv-x="737"
   d="M108,315l0,270l-71,-30l0,81l101,52l61,0l0,-373M79,0l448,688l89,0l-448,-688M557,0l0,71l-181,0l0,66l133,238l100,0l-135,-225l87,0l26,98l60,0l0,-98l49,0l0,-79l-49,0l0,-71z"
   id="glyph280" />
<glyph
   unicode="¾"
   horiz-adv-x="807"
   d="M157,386C184,386 202,388 211,393C220,398 224,409 224,426C224,443 221,454 214,460C207,465 195,468 176,468l-72,0l0,70l72,0C192,538 203,541 210,546C217,551 220,562 220,578C220,595 216,605 207,610C198,614 179,616 151,616C123,616 87,613 43,608l0,76C85,692 125,696 164,696C219,696 257,688 280,671C302,654 313,628 313,593C313,569 309,550 300,537C291,523 278,513 261,507l0,-4C298,492 317,464 317,417C317,380 306,353 285,335C263,316 223,307 164,307C124,307 83,311 41,319l0,74C94,388 132,386 157,386M150,0l448,688l90,0l-448,-688M627,0l0,71l-181,0l0,66l133,238l101,0l-135,-225l86,0l26,98l61,0l0,-98l48,0l0,-79l-48,0l0,-71z"
   id="glyph282" />
<glyph
   unicode="*"
   horiz-adv-x="447"
   d="M251,453l10,-134l-75,0l10,134l-114,-77l-38,69l124,57l-124,60l38,68l114,-77l-10,135l75,0l-11,-134l116,76l36,-68l-123,-60l123,-57l-36,-69z"
   id="glyph284" />
<glyph
   unicode="\"
   horiz-adv-x="392"
   d="M283,-55l-291,798l117,0l289,-798z"
   id="glyph286" />
<glyph
   unicode="·"
   horiz-adv-x="274"
   d="M64,232l0,135l146,0l0,-135z"
   id="glyph288" />
<glyph
   unicode="•"
   horiz-adv-x="384"
   d="M190,223C152,223 125,226 110,232C95,237 85,248 81,263C77,278 75,304 75,342C75,381 77,409 81,424C85,439 95,450 110,456C125,461 152,464 190,464C229,464 257,461 273,456C289,450 299,439 303,424C307,409 309,381 309,342C309,304 307,278 303,263C299,248 289,237 273,232C257,226 229,223 190,223z"
   id="glyph290" />
<glyph
   unicode=":"
   horiz-adv-x="274"
   d="M64,375l0,135l146,0l0,-135M64,0l0,135l146,0l0,-135z"
   id="glyph292" />
<glyph
   unicode=","
   horiz-adv-x="274"
   d="M119,-17l0,17l-55,0l0,135l146,0l0,-98C210,-14 206,-52 199,-76C192,-100 177,-117 156,-126C134,-136 99,-141 52,-141l0,59C79,-82 97,-78 106,-69C115,-61 119,-44 119,-17z"
   id="glyph294" />
<glyph
   unicode="…"
   horiz-adv-x="821"
   d="M64,0l0,135l146,0l0,-135M337,0l0,135l147,0l0,-135M612,0l0,135l146,0l0,-135z"
   id="glyph296" />
<glyph
   unicode="!"
   horiz-adv-x="303"
   d="M103,275C101,299 97,357 90,449C83,540 80,602 80,633l0,55l156,0l0,-55C236,593 228,476 213,283C212,267 211,254 210,245C209,236 209,229 208,225l-101,0M85,0l0,135l146,0l0,-135z"
   id="glyph298" />
<glyph
   unicode="¡"
   horiz-adv-x="291"
   d="M72,375l0,135l146,0l0,-135M67,-123C67,-91 71,-27 78,70C85,166 91,238 95,285l100,0C199,238 205,166 212,70C219,-27 223,-91 223,-123l0,-55l-156,0z"
   id="glyph300" />
<glyph
   unicode="#"
   horiz-adv-x="746"
   d="M340,0l41,179l-141,0l-41,-179l-92,0l41,179l-91,0l0,91l111,0l34,144l-108,0l0,91l128,0l43,183l92,0l-43,-183l141,0l44,183l92,0l-44,-183l93,0l0,-91l-113,0l-33,-144l109,0l0,-91l-130,0l-41,-179M435,414l-141,0l-34,-144l142,0z"
   id="glyph302" />
<glyph
   unicode="."
   horiz-adv-x="274"
   d="M64,0l0,135l146,0l0,-135z"
   id="glyph304" />
<glyph
   unicode="?"
   horiz-adv-x="510"
   d="M142,295C142,331 147,357 158,373C168,389 185,401 209,410l39,12C267,428 280,434 288,439C295,444 301,451 304,461C307,470 308,485 308,506C308,529 305,545 298,555C291,564 280,570 265,573C250,575 226,576 193,576C172,576 147,575 116,573C85,570 59,568 37,565l0,113C66,683 99,688 137,691C175,694 210,696 241,696C291,696 331,690 361,679C391,667 413,647 428,620C442,593 449,555 449,508C449,461 442,426 429,402C415,378 394,361 366,351l-43,-14C302,330 288,325 281,322C274,318 269,312 267,304C264,296 263,282 263,262l0,-38l-121,0M130,0l0,135l146,0l0,-135z"
   id="glyph306" />
<glyph
   unicode="¿"
   horiz-adv-x="450"
   d="M229,375l0,135l146,0l0,-135M56,2C56,47 62,81 75,106C88,131 108,148 135,157l42,14C200,178 216,184 223,188C230,191 235,197 238,205C241,213 242,227 242,248l0,38l121,0l0,-71C363,179 358,153 348,137C337,121 320,109 296,100l-33,-11C242,83 228,77 219,72C210,67 205,59 202,50C199,41 197,25 197,4C197,-19 201,-35 208,-44C215,-54 225,-60 240,-62C255,-65 279,-66 312,-66C358,-66 410,-62 469,-55l0,-113C440,-173 407,-178 369,-181C330,-184 295,-186 264,-186C213,-186 172,-180 142,-167C112,-155 90,-135 77,-108C63,-81 56,-44 56,2z"
   id="glyph308" />
<glyph
   unicode="&quot;"
   horiz-adv-x="432"
   d="M80,432l-15,195l0,61l122,0l0,-61l-15,-195M260,432l-15,195l0,61l122,0l0,-61l-15,-195z"
   id="glyph310" />
<glyph
   unicode="'"
   horiz-adv-x="252"
   d="M80,432l-15,195l0,61l122,0l0,-61l-15,-195z"
   id="glyph312" />
<glyph
   unicode=";"
   horiz-adv-x="274"
   d="M64,375l0,135l146,0l0,-135M119,-17l0,17l-55,0l0,135l146,0l0,-98C210,-14 206,-52 199,-76C192,-100 177,-117 156,-126C134,-136 99,-141 52,-141l0,59C79,-82 97,-78 106,-69C115,-61 119,-44 119,-17z"
   id="glyph314" />
<glyph
   unicode="/"
   horiz-adv-x="392"
   d="M-8,-55l290,798l116,0l-290,-798z"
   id="glyph316" />
<glyph
   unicode="_"
   horiz-adv-x="378"
   d="M0,-182l0,105l378,0l0,-105z"
   id="glyph318" />
<glyph
   unicode="{"
   horiz-adv-x="351"
   d="M115,35l0,114C115,182 109,209 97,231C84,252 60,264 24,265l0,63C60,329 84,340 97,362C109,383 115,411 115,444l0,114C115,629 156,690 239,743l92,0C330,742 321,733 305,718C289,702 274,680 259,651C244,622 236,595 236,568l0,-122C236,363 199,315 124,300l0,-7C199,278 236,229 236,146l0,-121C236,-2 243,-27 256,-52C269,-77 282,-97 296,-112C310,-127 322,-140 331,-150l-92,0C156,-97 115,-36 115,35z"
   id="glyph320" />
<glyph
   unicode="}"
   horiz-adv-x="351"
   d="M114,25l0,121C114,229 151,278 226,293l0,7C151,315 114,363 114,446l0,122C114,595 108,621 95,646C82,671 68,691 54,706C40,721 28,733 19,743l92,0C194,690 235,629 235,558l0,-114C235,411 241,383 254,362C266,340 290,329 326,328l0,-63C290,264 266,252 254,231C241,209 235,182 235,149l0,-114C235,-36 194,-97 111,-150l-92,0C20,-149 29,-140 45,-124C61,-109 77,-87 92,-58C107,-29 114,-2 114,25z"
   id="glyph322" />
<glyph
   unicode="["
   horiz-adv-x="365"
   d="M83,-150l0,893l239,0l0,-90l-119,-4l0,-705l119,-4l0,-90z"
   id="glyph324" />
<glyph
   unicode="]"
   horiz-adv-x="365"
   d="M43,-150l0,90l119,4l0,705l-119,4l0,90l240,0l0,-893z"
   id="glyph326" />
<glyph
   unicode="("
   horiz-adv-x="339"
   d="M69,297C69,383 74,451 84,500C93,549 109,590 130,623C151,656 183,696 228,743l91,0C284,698 260,662 245,634C230,606 218,566 209,515C200,463 195,390 195,297C195,203 200,130 209,79C218,27 230,-13 245,-40C260,-68 284,-105 319,-150l-91,0C182,-98 149,-56 129,-24C108,7 93,47 84,96C74,144 69,211 69,297z"
   id="glyph328" />
<glyph
   unicode=")"
   horiz-adv-x="339"
   d="M144,297C144,390 140,463 131,515C122,566 110,606 95,634C80,662 55,698 20,743l91,0C156,696 188,656 209,623C230,590 245,549 255,500C264,451 269,384 269,297C269,210 264,143 255,95C245,47 230,7 210,-25C190,-57 157,-99 111,-150l-91,0C55,-105 80,-68 95,-40C110,-13 122,27 131,79C140,130 144,203 144,297z"
   id="glyph330" />
<glyph
   unicode="—"
   horiz-adv-x="875"
   d="M48,251l0,105l779,0l0,-105z"
   id="glyph332" />
<glyph
   unicode="–"
   horiz-adv-x="475"
   d="M48,251l0,105l379,0l0,-105z"
   id="glyph334" />
<glyph
   unicode="-"
   horiz-adv-x="368"
   d="M53,226l0,117l263,0l0,-117z"
   id="glyph336" />
<glyph
   unicode="­"
   horiz-adv-x="368"
   d="M53,226l0,117l263,0l0,-117z"
   id="glyph338" />
<glyph
   unicode="«"
   horiz-adv-x="493"
   d="M163,98l-132,206l132,206l88,0l-107,-206l107,-206M348,98l-132,206l132,206l88,0l-108,-206l108,-206z"
   id="glyph340" />
<glyph
   unicode="»"
   horiz-adv-x="493"
   d="M57,98l108,206l-108,206l88,0l132,-206l-132,-206M242,98l107,206l-107,206l88,0l131,-206l-131,-206z"
   id="glyph342" />
<glyph
   unicode="‹"
   horiz-adv-x="308"
   d="M162,98l-131,206l131,206l88,0l-107,-206l107,-206z"
   id="glyph344" />
<glyph
   unicode="›"
   horiz-adv-x="308"
   d="M57,98l108,206l-108,206l89,0l132,-206l-132,-206z"
   id="glyph346" />
<glyph
   unicode="„"
   horiz-adv-x="469"
   d="M118,-16l0,16l-54,0l0,128l139,0l0,-93C203,-14 200,-49 193,-72C186,-95 173,-111 152,-120C131,-129 98,-134 53,-134l0,55C79,-79 96,-75 105,-67C114,-59 118,-42 118,-16M320,-16l0,16l-54,0l0,128l139,0l0,-93C405,-14 402,-49 395,-72C388,-95 375,-111 354,-120C333,-129 300,-134 255,-134l0,55C281,-79 298,-75 307,-67C316,-59 320,-42 320,-16z"
   id="glyph348" />
<glyph
   unicode="“"
   horiz-adv-x="469"
   d="M64,519C64,568 67,604 74,627C81,650 94,666 115,675C136,684 169,688 214,688l0,-55C187,633 170,629 161,621C152,613 148,596 148,570l0,-16l55,0l0,-128l-139,0M266,519C266,568 269,604 276,627C283,650 296,666 317,675C338,684 371,688 416,688l0,-55C389,633 372,629 363,621C354,613 350,596 350,570l0,-16l55,0l0,-128l-139,0z"
   id="glyph350" />
<glyph
   unicode="”"
   horiz-adv-x="469"
   d="M118,544l0,17l-54,0l0,127l139,0l0,-93C203,546 200,511 193,488C186,465 173,449 152,440C131,431 98,426 53,426l0,56C79,482 96,486 105,494C114,502 118,519 118,544M320,544l0,17l-54,0l0,127l139,0l0,-93C405,546 402,511 395,488C388,465 375,449 354,440C333,431 300,426 255,426l0,56C281,482 298,486 307,494C316,502 320,519 320,544z"
   id="glyph352" />
<glyph
   unicode="‘"
   horiz-adv-x="267"
   d="M64,519C64,568 67,604 74,627C81,650 94,666 115,675C136,684 169,688 214,688l0,-55C187,633 170,629 161,621C152,613 148,596 148,570l0,-16l55,0l0,-128l-139,0z"
   id="glyph354" />
<glyph
   unicode="’"
   horiz-adv-x="267"
   d="M118,544l0,17l-54,0l0,127l139,0l0,-93C203,546 200,511 193,488C186,465 173,449 152,440C131,431 98,426 53,426l0,56C79,482 96,486 105,494C114,502 118,519 118,544z"
   id="glyph356" />
<glyph
   unicode="‚"
   horiz-adv-x="267"
   d="M118,-16l0,16l-54,0l0,128l139,0l0,-93C203,-14 200,-49 193,-72C186,-95 173,-111 152,-120C131,-129 98,-134 53,-134l0,55C79,-79 96,-75 105,-67C114,-59 118,-42 118,-16z"
   id="glyph358" />
<glyph
   unicode="¢"
   horiz-adv-x="467"
   d="M218,70C169,76 133,90 110,112C87,134 72,163 65,198C58,233 55,281 55,342C55,402 59,450 66,486C73,522 89,551 113,573C136,595 171,609 218,615l0,81l97,0l0,-79C357,615 390,610 415,602l0,-108C380,500 344,503 306,503C271,503 247,499 232,491C217,483 207,468 202,447C197,426 194,391 194,342C194,294 197,259 202,238C207,216 218,201 234,194C249,186 274,182 308,182C346,182 383,185 419,191l0,-108C392,76 357,71 315,69l0,-77l-97,0z"
   id="glyph360" />
<glyph
   unicode="¤"
   horiz-adv-x="678"
   d="M53,72l75,76C119,167 113,192 110,222C107,251 105,292 105,345C105,397 106,438 109,467C112,496 118,521 127,541l-75,75l72,74l85,-85C240,614 283,618 339,618C395,618 438,614 469,605l85,86l72,-74l-76,-76C559,521 566,496 569,466C572,436 573,396 573,345C573,294 572,253 569,223C566,192 559,167 549,148l77,-76l-72,-75l-86,86C437,74 394,70 339,70C283,70 240,74 209,83l-85,-85M439,345C439,400 438,438 435,458C432,477 424,490 411,497C398,504 374,507 339,507C304,507 280,504 267,497C254,490 246,477 243,458C240,438 238,400 238,345C238,289 240,251 243,232C246,212 254,199 267,192C280,185 304,181 339,181C374,181 398,185 411,192C424,199 432,212 435,232C438,251 439,289 439,345z"
   id="glyph362" />
<glyph
   unicode="$"
   horiz-adv-x="537"
   d="M222,68C167,70 117,75 74,83l0,106C138,184 196,181 247,181C279,181 302,183 316,186C330,189 339,193 343,200C347,207 349,217 349,232C349,246 348,256 346,262C343,267 339,271 332,274C325,276 313,278 296,280l-118,16C130,303 98,319 82,345C65,371 57,409 57,458C57,513 71,553 99,576C127,599 168,613 222,617l0,79l97,0l0,-78C340,617 364,615 389,612C414,609 434,605 450,602l0,-106C387,502 334,505 291,505C262,505 240,504 227,502C213,500 203,496 197,489C190,482 187,472 187,457C187,443 188,433 190,428C192,422 196,418 203,416C209,413 220,411 237,409l130,-15C394,390 416,383 432,374C447,365 459,349 467,328C475,306 479,275 479,236C479,174 466,131 439,108C412,84 372,71 319,68l0,-76l-97,0z"
   id="glyph364" />
<glyph
   unicode="€"
   horiz-adv-x="612"
   d="M114,229l-81,0l0,79l78,0l0,74l-78,0l0,78l81,0C119,520 130,567 147,601C164,634 192,659 231,674C270,689 324,696 393,696C432,696 468,694 500,690C532,685 552,682 560,679l0,-111C549,569 530,571 503,574C476,576 451,577 428,577C381,577 346,575 324,570C302,565 286,554 276,538C265,522 259,496 256,460l256,0l0,-78l-259,0l0,-74l259,0l0,-79l-256,0C259,193 265,167 276,151C286,134 302,124 324,119C346,114 381,111 428,111C459,111 487,112 514,115C541,117 557,119 564,120l0,-113C557,5 537,2 503,-2C469,-6 432,-8 393,-8C322,-8 267,-1 229,13C190,26 163,50 146,83C129,116 118,165 114,229z"
   id="glyph366" />
<glyph
   unicode="£"
   horiz-adv-x="598"
   d="M555,120l0,-120l-509,0l0,120l74,0l0,176l-74,0l0,116l75,0C121,486 129,543 144,583C159,623 185,652 223,670C260,687 315,696 386,696C413,696 442,694 471,691C500,688 524,684 543,679l0,-112C492,573 453,576 424,576C392,576 367,575 348,572C329,569 314,563 303,556C288,546 277,530 272,509C267,487 264,455 264,412l204,0l0,-116l-204,0l0,-176z"
   id="glyph368" />
<glyph
   unicode="¥"
   horiz-adv-x="627"
   d="M241,0l0,217l-188,0l0,78l170,0l-42,74l-128,0l0,78l90,0l-120,241l147,0l141,-302l7,0l142,302l142,0l-120,-241l90,0l0,-78l-128,0l-43,-74l171,0l0,-78l-188,0l0,-217z"
   id="glyph370" />
<glyph
   unicode="+"
   horiz-adv-x="539"
   d="M218,52l0,148l-148,0l0,105l148,0l0,148l102,0l0,-148l150,0l0,-105l-150,0l0,-148z"
   id="glyph372" />
<glyph
   unicode="−"
   horiz-adv-x="539"
   d="M70,200l0,105l400,0l0,-105z"
   id="glyph374" />
<glyph
   unicode="×"
   horiz-adv-x="500"
   d="M250,178l-111,-110l-71,74l110,110l-111,110l72,75l111,-110l111,110l72,-74l-111,-110l111,-111l-72,-75z"
   id="glyph376" />
<glyph
   unicode="÷"
   horiz-adv-x="539"
   d="M218,391l0,96l102,0l0,-96M70,200l0,105l400,0l0,-105M218,18l0,96l102,0l0,-96z"
   id="glyph378" />
<glyph
   unicode="="
   horiz-adv-x="539"
   d="M70,302l0,105l400,0l0,-105M70,98l0,105l400,0l0,-105z"
   id="glyph380" />
<glyph
   unicode="&gt;"
   horiz-adv-x="540"
   d="M70,44l0,107l286,102l-286,101l0,107l400,-154l0,-109z"
   id="glyph382" />
<glyph
   unicode="&lt;"
   horiz-adv-x="540"
   d="M471,44l-400,154l0,109l400,154l0,-107l-286,-101l286,-102z"
   id="glyph384" />
<glyph
   unicode="±"
   horiz-adv-x="539"
   d="M218,185l0,149l-148,0l0,105l148,0l0,147l102,0l0,-147l150,0l0,-105l-150,0l0,-149M70,-1l0,105l400,0l0,-105z"
   id="glyph386" />
<glyph
   unicode="~"
   horiz-adv-x="497"
   d="M352,241C323,241 283,248 234,261C229,262 217,265 199,270C181,274 166,276 154,276C141,276 134,273 131,267C128,261 127,248 127,229l-70,0C57,264 59,290 62,308C65,326 73,340 86,350C98,360 117,365 144,365C173,365 213,358 262,345C267,344 279,341 297,337C315,332 330,330 342,330C355,330 362,333 365,339C368,344 369,357 369,376l69,0C438,342 436,316 433,298C430,280 422,266 410,256C397,246 378,241 352,241z"
   id="glyph388" />
<glyph
   unicode="¬"
   horiz-adv-x="539"
   d="M368,53l0,148l-298,0l0,106l399,0l0,-254z"
   id="glyph390" />
<glyph
   unicode="µ"
   horiz-adv-x="592"
   d="M521,510l0,-510l-124,0l-4,63l-8,0C372,40 354,22 329,11C304,0 272,-6 233,-6C223,-6 213,-5 203,-3l0,-186l-133,0l0,699l133,0l0,-270C203,198 205,169 209,152C212,135 220,124 232,119C243,114 263,111 292,111C320,111 341,115 355,124C368,133 377,146 382,165C386,183 388,210 388,246l0,264z"
   id="glyph392" />
<glyph
   unicode="%"
   horiz-adv-x="859"
   d="M52,503C52,560 55,602 61,627C66,652 79,669 99,680C119,691 152,696 199,696C246,696 279,691 299,680C319,669 332,652 338,627C343,602 346,560 346,503C346,446 343,405 338,380C332,355 319,337 299,327C279,316 246,311 199,311C152,311 119,316 99,327C79,337 66,355 61,380C55,405 52,446 52,503M161,0l448,688l89,0l-449,-688M263,503C263,547 262,577 260,592C258,607 253,616 245,620C237,624 222,626 199,626C176,626 161,624 153,620C145,616 140,607 138,592C136,577 135,547 135,503C135,458 136,429 138,414C140,399 145,390 153,386C160,382 176,380 199,380C222,380 238,382 246,386C253,390 258,399 260,414C262,429 263,458 263,503M513,184C513,241 516,283 522,308C527,333 540,350 560,361C580,372 613,377 660,377C707,377 740,372 761,361C781,350 794,333 800,308C805,283 808,241 808,184C808,127 805,86 800,61C794,36 781,18 761,8C741,-3 707,-8 660,-8C613,-8 580,-3 560,8C540,18 527,36 522,61C516,86 513,127 513,184M724,184C724,229 723,258 721,273C719,288 714,297 707,301C699,305 683,307 660,307C637,307 622,305 615,301C607,297 602,288 600,273C598,258 597,228 597,184C597,139 598,110 600,95C602,80 607,71 615,67C622,63 637,61 660,61C683,61 699,63 707,67C714,71 719,80 721,95C723,110 724,139 724,184z"
   id="glyph394" />
<glyph
   unicode="@"
   horiz-adv-x="935"
   d="M76,294C76,425 83,515 97,566C110,616 143,650 194,669C245,687 336,696 467,696C598,696 689,687 740,670C791,652 824,618 837,567C850,516 857,425 857,294C857,223 853,173 845,142C836,111 824,93 807,86C790,79 763,75 724,75l-171,0l-5,53l-7,0C526,103 508,87 487,80C465,72 438,68 406,68C359,68 326,78 305,99C284,119 273,153 273,200C273,235 277,262 285,281C292,299 306,312 325,320C344,328 371,332 408,332C442,332 488,331 545,328l0,18C545,371 543,389 538,399C533,409 524,415 509,418C494,421 468,422 430,422C405,422 361,420 299,416l0,89C358,514 415,518 469,518C527,518 570,512 598,500C625,488 643,470 652,446C660,422 664,387 664,341l0,-209l70,0C753,132 766,135 774,140C781,145 787,159 790,181C793,203 795,241 795,294C795,385 793,450 789,491C785,531 775,562 758,584C741,605 713,620 674,628C653,632 628,635 598,636C568,637 524,637 466,637C428,637 393,637 360,636C327,635 301,634 281,631C234,624 201,611 182,590C162,569 150,539 145,498C140,457 137,389 137,294C137,189 140,116 147,74C154,31 170,1 196,-16C222,-34 267,-45 331,-48C355,-49 400,-50 467,-50C499,-50 534,-49 573,-48C611,-47 641,-47 663,-46l0,-59C614,-107 548,-108 467,-108C337,-108 246,-99 195,-80C143,-62 110,-28 97,23C83,74 76,164 76,294M545,239l0,24l-104,0C424,263 412,262 405,260C398,257 393,252 390,245C387,238 386,226 386,210C386,194 388,183 391,176C394,169 401,164 411,161C421,158 437,156 459,156C483,156 501,159 514,164C526,169 534,177 539,188C543,199 545,216 545,239z"
   id="glyph396" />
<glyph
   unicode="&amp;"
   horiz-adv-x="735"
   d="M706,403l0,-111l-108,0l0,-278C564,7 525,2 481,-2C436,-6 396,-8 361,-8C276,-8 212,0 168,17C123,33 94,55 79,82C64,109 56,143 56,184C56,237 66,275 86,299C105,322 137,339 180,349l0,4C139,363 110,380 91,405C72,430 62,466 62,515C62,571 83,615 126,648C169,680 247,696 361,696C395,696 434,694 478,690C521,686 560,681 594,674l0,-105C563,573 528,576 489,579C450,582 417,583 388,583C331,583 290,580 264,575C237,570 220,561 211,549C202,536 198,517 198,491C198,470 200,453 205,441C210,428 220,419 236,413C251,406 275,403 307,403l72,0l0,-111l-72,0C274,292 249,289 233,284C216,278 205,269 200,256C195,243 192,223 192,198C192,171 197,151 208,138C219,125 236,116 260,111C283,106 317,104 362,104C401,104 436,105 465,108l0,295z"
   id="glyph398" />
<glyph
   unicode="¶"
   horiz-adv-x="619"
   d="M296,222C216,222 160,227 128,238C95,249 75,269 66,298C57,327 53,379 53,454C53,529 57,581 66,611C75,640 95,661 128,672C160,683 216,688 296,688l91,0l0,-832l-91,0M453,-144l0,832l88,0l0,-832z"
   id="glyph400" />
<glyph
   unicode="§"
   horiz-adv-x="691"
   d="M138,-156l0,109C141,-47 155,-48 181,-50C207,-52 239,-53 277,-53C320,-53 351,-52 370,-50C389,-48 402,-44 409,-37C416,-31 420,-20 420,-5C420,8 419,18 417,24C414,30 410,35 404,39C397,42 386,46 371,50l-197,57C142,116 117,126 100,137C83,148 70,164 61,185C52,206 47,236 47,274C47,326 54,366 68,395C82,423 109,441 148,448C143,458 139,469 138,482C137,495 136,512 136,533C136,576 145,610 164,634C182,658 207,674 240,683C273,692 314,696 363,696C410,696 452,694 489,690C526,686 547,683 552,681l0,-109C549,572 534,573 506,575C478,576 447,577 413,577C370,577 339,576 320,574C301,572 288,568 281,562C274,555 270,545 270,530C270,516 271,506 274,500C276,493 280,488 287,485C293,482 304,478 320,473l197,-57C548,407 573,397 590,386C607,375 621,360 630,339C639,318 643,288 643,249C643,198 636,158 622,129C608,100 581,83 542,76C550,57 554,29 554,-8C554,-52 545,-86 527,-109C508,-133 483,-149 450,-158C417,-167 376,-171 327,-171C280,-171 239,-169 202,-165C165,-161 143,-158 138,-156M516,227C516,252 513,270 506,279C499,288 485,296 464,301l-202,57C258,359 251,362 240,365C229,368 221,369 215,369C201,369 191,363 185,352C178,340 175,321 175,296C175,278 177,265 180,256C183,247 188,241 195,236C202,231 213,226 228,222l201,-58C452,157 467,154 476,154C489,154 499,160 506,172C513,183 516,202 516,227z"
   id="glyph402" />
<glyph
   unicode="©"
   horiz-adv-x="741"
   d="M80,344C80,456 85,534 95,579C105,623 129,654 168,671C207,688 274,696 370,696C466,696 534,688 573,671C612,654 636,623 646,579C656,534 661,456 661,344C661,232 656,154 646,109C636,64 612,34 573,17C534,0 467,-8 370,-8C274,-8 207,0 168,17C129,34 105,64 95,109C85,154 80,232 80,344M604,344C604,449 600,519 593,555C585,591 567,614 538,624C509,634 453,639 370,639C287,639 231,634 202,624C173,614 155,591 148,555C140,519 136,449 136,344C136,239 140,169 148,133C155,96 173,73 202,63C231,53 287,48 370,48C453,48 509,53 538,63C567,73 585,96 593,133C600,169 604,239 604,344M239,342C239,393 243,432 250,458C257,484 271,503 293,514C314,525 347,531 392,531C408,531 425,530 443,529C460,527 474,525 484,522l0,-64C457,461 433,463 411,463C380,463 359,461 348,456C337,451 329,441 326,426C323,411 321,383 321,342C321,301 323,273 326,258C329,243 337,233 348,228C359,223 380,221 411,221C439,221 464,223 486,226l0,-65C463,156 431,153 392,153C347,153 314,159 293,170C271,181 257,200 250,226C243,252 239,291 239,342z"
   id="glyph404" />
<glyph
   unicode="®"
   horiz-adv-x="741"
   d="M661,344C661,232 656,154 646,109C636,64 612,34 573,17C534,0 467,-8 370,-8C274,-8 207,0 168,17C129,34 105,64 95,109C85,154 80,232 80,344C80,456 85,534 95,579C105,623 129,654 168,671C207,688 274,696 370,696C466,696 534,688 573,671C612,654 636,623 646,579C656,534 661,456 661,344M604,344C604,449 600,519 593,555C585,591 567,614 538,624C509,634 453,639 370,639C287,639 231,634 202,624C173,614 155,591 148,555C140,519 136,449 136,344C136,239 140,169 148,133C155,96 173,73 202,63C231,53 287,48 370,48C453,48 509,53 538,63C567,73 585,96 593,133C600,169 604,239 604,344M465,303l60,-145l-85,0l-51,135C384,292 376,292 367,292l-58,0l0,-134l-79,0l0,370l170,0C434,528 460,523 477,514C494,505 505,492 510,476C515,459 518,438 518,411C518,384 514,361 507,343C500,324 486,311 465,303M438,409C438,424 437,435 434,442C431,449 425,453 416,456C407,459 393,460 374,460l-65,0l0,-103l60,0C390,357 406,359 416,362C425,365 431,370 434,377C437,384 438,394 438,409z"
   id="glyph406" />
<glyph
   unicode="°"
   horiz-adv-x="393"
   d="M55,546C55,588 58,619 63,639C68,658 81,673 101,682C120,691 152,696 196,696C241,696 273,691 293,682C312,673 325,658 330,639C335,619 338,588 338,546C338,504 335,473 330,454C325,434 312,420 293,411C273,402 241,397 196,397C152,397 120,402 101,411C81,420 68,434 63,454C58,473 55,504 55,546M255,546C255,574 254,593 253,604C251,614 246,621 238,626C230,630 216,632 196,632C176,632 162,630 154,626C146,621 141,614 140,604C138,593 137,574 137,546C137,519 138,500 140,489C141,478 146,471 154,467C162,463 176,461 196,461C216,461 230,463 238,467C246,471 251,478 253,489C254,500 255,519 255,546z"
   id="glyph408" />
<glyph
   unicode="|"
   horiz-adv-x="290"
   d="M86,-161l0,904l117,0l0,-904z"
   id="glyph410" />
<glyph
   unicode="¦"
   horiz-adv-x="290"
   d="M86,390l0,353l117,0l0,-353M86,-161l0,353l117,0l0,-353z"
   id="glyph412" />
<glyph
   unicode="^"
   horiz-adv-x="441"
   d="M314,443l-93,213l-94,-213l-99,0l141,306l103,0l140,-306z"
   id="glyph414" />
<glyph
   unicode="´"
   horiz-adv-x="267"
   d="M20,599l0,5l94,139l134,0l0,-5l-132,-139z"
   id="glyph416" />
<glyph
   unicode="¸"
   horiz-adv-x="202"
   d="M20,-190l0,5l72,193l90,0l0,-5l-37,-193z"
   id="glyph418" />
<glyph
   unicode="ˆ"
   horiz-adv-x="361"
   d="M20,598l0,7l96,138l128,0l97,-138l0,-7l-88,0l-74,85l-72,-85z"
   id="glyph420" />
<glyph
   unicode="¨"
   horiz-adv-x="351"
   d="M19,627l0,103l114,0l0,-103M218,627l0,103l114,0l0,-103z"
   id="glyph422" />
<glyph
   unicode="`"
   horiz-adv-x="267"
   d="M151,599l-131,139l0,5l133,0l95,-139l0,-5z"
   id="glyph424" />
<glyph
   unicode="¯"
   horiz-adv-x="370"
   d="M53,625l0,117l263,0l0,-117z"
   id="glyph426" />
<glyph
   unicode="˚"
   horiz-adv-x="323"
   d="M20,710C20,741 23,765 28,781C33,796 46,808 66,816C85,823 117,827 160,827C204,827 236,823 256,816C276,808 289,796 295,781C300,765 303,741 303,710C303,679 300,656 295,641C289,626 276,614 256,607C236,599 204,595 160,595C117,595 85,599 66,607C46,614 33,626 28,641C23,656 20,679 20,710M228,710C228,727 227,740 225,747C223,754 217,759 208,762C199,765 183,767 160,767C139,767 124,765 115,762C106,759 100,754 98,747C95,740 94,727 94,710C94,693 95,681 98,674C100,667 106,662 115,659C124,656 139,654 160,654C183,654 199,656 208,659C217,662 223,667 225,674C227,681 228,693 228,710z"
   id="glyph428" />
<glyph
   unicode="˜"
   horiz-adv-x="421"
   d="M314,608C297,608 280,610 264,613C247,616 225,621 196,628C191,629 179,632 161,637C143,641 128,643 116,643C103,643 96,640 93,635C90,629 89,616 89,597l-70,0C19,631 21,657 24,676C27,694 35,708 48,718C60,728 79,733 106,733C123,733 140,731 157,728C174,725 196,720 223,713C262,703 289,698 304,698C317,698 324,701 327,707C330,712 331,725 331,744l69,0C400,709 398,683 395,665C392,647 384,633 372,623C359,613 340,608 314,608z"
   id="glyph430" />
<glyph
   unicode=" "
   horiz-adv-x="246"
   id="glyph432" />
</font>

	<font
   horiz-adv-x="1000"
   id="font1654">
<!-- Copyright 2016 The Saira Project Authors (omnibus.type@gmail.com), with reserved font name &quot;Saira&quot;. -->
<!-- Copyright: Copyright 2019 Adobe System Incorporated. All rights reserved. -->
<font-face
   font-family="Saira-Regular"
   units-per-em="1000"
   underline-position="-75"
   underline-thickness="50"
   id="font-face436" />
<missing-glyph
   horiz-adv-x="500"
   d="M0,0l0,700l500,0l0,-700M450,650l-400,0l0,-600l400,0M229,278C229,297 234,313 243,326C252,339 265,352 283,367C302,382 316,397 325,411C334,424 339,442 339,465C339,486 333,505 320,524C307,543 284,552 250,552C211,552 185,541 172,519C159,496 152,474 152,452l0,-28l-49,0C100,432 99,442 99,455C99,470 103,489 110,511C117,533 131,554 154,573C176,592 208,602 250,602C292,602 324,593 345,574C366,555 379,536 385,516C390,496 393,480 393,467C393,437 387,412 375,393C362,374 346,355 326,338C311,326 300,315 293,305C286,295 282,283 282,268l0,-53l-53,0M225,99l0,70l60,0l0,-70z"
   id="missing-glyph438" />
<glyph
   unicode=" "
   horiz-adv-x="235"
   id="glyph440" />
<glyph
   unicode=" "
   horiz-adv-x="235"
   id="glyph442" />
<glyph
   unicode="A"
   horiz-adv-x="684"
   d="M567,0l-71,183l-310,0l-71,-183l-87,0l260,688l108,0l260,-688M343,595l-5,0l-126,-331l257,0z"
   id="glyph444" />
<glyph
   unicode="Á"
   horiz-adv-x="684"
   d="M567,0l-71,183l-310,0l-71,-183l-87,0l260,688l108,0l260,-688M343,595l-5,0l-126,-331l257,0M290,750l0,5l101,136l88,0l0,-5l-129,-136z"
   id="glyph446" />
<glyph
   unicode="Ă"
   horiz-adv-x="684"
   d="M567,0l-71,183l-310,0l-71,-183l-87,0l260,688l108,0l260,-688M343,595l-5,0l-126,-331l257,0M341,743C300,743 269,749 250,761C230,772 217,788 212,808C207,827 204,854 204,888l53,0C257,864 258,846 261,835C264,824 271,815 283,808C295,801 314,798 341,798C368,798 387,801 399,808C411,815 419,824 422,836C425,847 426,865 426,888l54,0C480,855 477,828 472,809C466,789 453,773 433,761C413,749 382,743 341,743z"
   id="glyph448" />
<glyph
   unicode="Ắ"
   horiz-adv-x="684"
   d="M567,0l-71,183l-310,0l-71,-183l-87,0l260,688l108,0l260,-688M343,595l-5,0l-126,-331l257,0M340,743C299,743 268,749 249,761C229,772 216,788 211,808C206,827 203,854 203,888l53,0C256,864 257,846 260,835C263,824 270,815 282,808C294,801 313,798 340,798C367,798 386,801 398,808C410,815 418,824 421,836C424,847 425,865 425,888l54,0C479,855 476,828 471,809C465,789 452,773 432,761C412,749 381,743 340,743M305,920l0,5l101,136l88,0l0,-5l-129,-136z"
   id="glyph450" />
<glyph
   unicode="Ặ"
   horiz-adv-x="684"
   d="M567,0l-71,183l-310,0l-71,-183l-87,0l260,688l108,0l260,-688M343,595l-5,0l-126,-331l257,0M295,-165l0,103l95,0l0,-103M341,743C300,743 269,749 250,761C230,772 217,788 212,808C207,827 204,854 204,888l53,0C257,864 258,846 261,835C264,824 271,815 283,808C295,801 314,798 341,798C368,798 387,801 399,808C411,815 419,824 422,836C425,847 426,865 426,888l54,0C480,855 477,828 472,809C466,789 453,773 433,761C413,749 382,743 341,743z"
   id="glyph452" />
<glyph
   unicode="Ằ"
   horiz-adv-x="684"
   d="M567,0l-71,183l-310,0l-71,-183l-87,0l260,688l108,0l260,-688M343,595l-5,0l-126,-331l257,0M346,743C305,743 274,749 255,761C235,772 222,788 217,808C212,827 209,854 209,888l53,0C262,864 263,846 266,835C269,824 276,815 288,808C300,801 319,798 346,798C373,798 392,801 404,808C416,815 424,824 427,836C430,847 431,865 431,888l54,0C485,855 482,828 477,809C471,789 458,773 438,761C418,749 387,743 346,743M331,920l-129,136l0,5l88,0l101,-136l0,-5z"
   id="glyph454" />
<glyph
   unicode="Ẳ"
   horiz-adv-x="684"
   d="M567,0l-71,183l-310,0l-71,-183l-87,0l260,688l108,0l260,-688M343,595l-5,0l-126,-331l257,0M341,743C300,743 269,749 250,761C230,772 217,788 212,808C207,827 204,854 204,888l53,0C257,864 258,846 261,835C264,824 271,815 283,808C295,801 314,798 341,798C368,798 387,801 399,808C411,815 419,824 422,836C425,847 426,865 426,888l54,0C480,855 477,828 472,809C466,789 453,773 433,761C413,749 382,743 341,743M292,897C292,915 295,928 301,935C307,942 319,948 337,953l22,7C382,965 396,970 402,975C408,980 411,988 411,1000C411,1017 406,1027 396,1031C385,1035 364,1037 332,1037C299,1037 262,1035 221,1032l0,46C255,1083 294,1086 337,1086C370,1086 395,1084 413,1081C431,1077 445,1069 454,1058C463,1047 468,1030 468,1007C468,984 464,967 456,957C447,946 431,938 406,931l-24,-7C368,920 358,917 353,915C348,912 344,909 343,906C342,902 341,896 341,888l-49,0z"
   id="glyph456" />
<glyph
   unicode="Ẵ"
   horiz-adv-x="684"
   d="M567,0l-71,183l-310,0l-71,-183l-87,0l260,688l108,0l260,-688M343,595l-5,0l-126,-331l257,0M339,743C298,743 267,749 248,761C228,772 215,788 210,808C205,827 202,854 202,888l53,0C255,864 256,846 259,835C262,824 269,815 281,808C293,801 312,798 339,798C366,798 385,801 397,808C409,815 417,824 420,836C423,847 424,865 424,888l54,0C478,855 475,828 470,809C464,789 451,773 431,761C411,749 380,743 339,743M449,945C432,945 415,947 398,951C381,954 358,960 330,968C289,981 259,987 239,987C225,987 216,984 213,977C210,970 208,955 208,934l-47,0C161,963 163,986 166,1002C169,1018 176,1030 187,1039C197,1047 213,1051 234,1051C251,1051 268,1049 285,1046C301,1042 324,1036 353,1027C356,1026 365,1024 379,1020C392,1016 405,1013 416,1011C427,1009 436,1008 444,1008C458,1008 467,1012 470,1019C473,1026 475,1041 475,1062l47,0C522,1032 520,1009 517,993C514,977 507,965 497,957C486,949 470,945 449,945z"
   id="glyph458" />
<glyph
   unicode="Ǎ"
   horiz-adv-x="684"
   d="M567,0l-71,183l-310,0l-71,-183l-87,0l260,688l108,0l260,-688M343,595l-5,0l-126,-331l257,0M299,746l-102,136l0,6l56,0l88,-96l89,96l56,0l0,-6l-102,-136z"
   id="glyph460" />
<glyph
   unicode="Â"
   horiz-adv-x="684"
   d="M567,0l-71,183l-310,0l-71,-183l-87,0l260,688l108,0l260,-688M343,595l-5,0l-126,-331l257,0M197,750l0,7l102,135l85,0l102,-135l0,-7l-56,0l-89,96l-88,-96z"
   id="glyph462" />
<glyph
   unicode="Ấ"
   horiz-adv-x="684"
   d="M567,0l-71,183l-310,0l-71,-183l-87,0l260,688l108,0l260,-688M343,595l-5,0l-126,-331l257,0M194,746l0,7l102,135l85,0l102,-135l0,-7l-56,0l-89,96l-88,-96M387,907l0,5l101,136l88,0l0,-5l-129,-136z"
   id="glyph464" />
<glyph
   unicode="Ậ"
   horiz-adv-x="684"
   d="M567,0l-71,183l-310,0l-71,-183l-87,0l260,688l108,0l260,-688M343,595l-5,0l-126,-331l257,0M295,-165l0,103l95,0l0,-103M197,746l0,7l102,135l85,0l102,-135l0,-7l-56,0l-89,96l-88,-96z"
   id="glyph466" />
<glyph
   unicode="Ầ"
   horiz-adv-x="684"
   d="M567,0l-71,183l-310,0l-71,-183l-87,0l260,688l108,0l260,-688M343,595l-5,0l-126,-331l257,0M194,746l0,7l102,135l85,0l102,-135l0,-7l-56,0l-89,96l-88,-96M426,907l-129,136l0,5l88,0l101,-136l0,-5z"
   id="glyph468" />
<glyph
   unicode="Ẩ"
   horiz-adv-x="684"
   d="M567,0l-71,183l-310,0l-71,-183l-87,0l260,688l108,0l260,-688M343,595l-5,0l-126,-331l257,0M197,746l0,7l102,135l85,0l102,-135l0,-7l-56,0l-89,96l-88,-96M380,908C380,926 383,939 389,946C395,953 407,959 425,964l22,7C470,976 484,981 490,986C496,991 499,999 499,1011C499,1028 494,1038 484,1042C473,1046 452,1048 420,1048C387,1048 350,1046 309,1043l0,46C343,1094 382,1097 425,1097C458,1097 483,1095 501,1092C519,1088 533,1080 542,1069C551,1058 556,1041 556,1018C556,995 552,978 544,968C535,957 519,949 494,942l-24,-7C456,931 446,928 441,926C436,923 432,920 431,917C430,913 429,907 429,899l-49,0z"
   id="glyph470" />
<glyph
   unicode="Ẫ"
   horiz-adv-x="684"
   d="M567,0l-71,183l-310,0l-71,-183l-87,0l260,688l108,0l260,-688M343,595l-5,0l-126,-331l257,0M195,746l0,7l102,135l85,0l102,-135l0,-7l-56,0l-89,96l-88,-96M449,945C432,945 415,947 398,951C381,954 358,960 330,968C289,981 259,987 239,987C225,987 216,984 213,977C210,970 208,955 208,934l-47,0C161,963 163,986 166,1002C169,1018 176,1030 187,1039C197,1047 213,1051 234,1051C251,1051 268,1049 285,1046C301,1042 324,1036 353,1027C356,1026 365,1024 379,1020C392,1016 405,1013 416,1011C427,1009 436,1008 444,1008C458,1008 467,1012 470,1019C473,1026 475,1041 475,1062l47,0C522,1032 520,1009 517,993C514,977 507,965 497,957C486,949 470,945 449,945z"
   id="glyph472" />
<glyph
   unicode="Ȁ"
   horiz-adv-x="684"
   d="M567,0l-71,183l-310,0l-71,-183l-87,0l260,688l108,0l260,-688M343,595l-5,0l-126,-331l257,0M285,752l-53,0l-121,126l0,5l77,0l97,-126M477,752l-52,0l-121,126l0,5l77,0l96,-126z"
   id="glyph474" />
<glyph
   unicode="Ä"
   horiz-adv-x="684"
   d="M567,0l-71,183l-310,0l-71,-183l-87,0l260,688l108,0l260,-688M343,595l-5,0l-126,-331l257,0M209,775l0,83l77,0l0,-83M398,775l0,83l76,0l0,-83z"
   id="glyph476" />
<glyph
   unicode="Ạ"
   horiz-adv-x="684"
   d="M567,0l-71,183l-310,0l-71,-183l-87,0l260,688l108,0l260,-688M343,595l-5,0l-126,-331l257,0M295,-165l0,103l95,0l0,-103z"
   id="glyph478" />
<glyph
   unicode="À"
   horiz-adv-x="684"
   d="M567,0l-71,183l-310,0l-71,-183l-87,0l260,688l108,0l260,-688M343,595l-5,0l-126,-331l257,0M332,750l-129,136l0,5l88,0l101,-136l0,-5z"
   id="glyph480" />
<glyph
   unicode="Ả"
   horiz-adv-x="684"
   d="M567,0l-71,183l-310,0l-71,-183l-87,0l260,688l108,0l260,-688M343,595l-5,0l-126,-331l257,0M289,740C289,758 292,771 298,778C304,785 316,791 334,796l22,6C379,808 393,813 399,818C405,823 408,831 408,843C408,855 405,864 400,869C394,874 386,878 375,879C364,880 345,880 320,880C287,880 253,878 218,875l0,46C255,926 294,928 334,928C367,928 392,926 410,923C428,920 442,912 451,901C460,890 465,872 465,849C465,826 461,809 453,799C444,788 428,780 403,773l-24,-6C366,763 356,760 351,758C345,755 341,752 340,749C339,745 338,739 338,731l-49,0z"
   id="glyph482" />
<glyph
   unicode="Ȃ"
   horiz-adv-x="684"
   d="M567,0l-71,183l-310,0l-71,-183l-87,0l260,688l108,0l260,-688M343,595l-5,0l-126,-331l257,0M343,894C384,894 415,888 435,877C454,865 467,849 472,830C477,810 480,783 480,749l-53,0C427,773 426,791 423,802C420,813 413,822 401,829C389,836 370,839 343,839C316,839 297,836 285,829C273,822 266,813 263,802C260,790 258,772 258,749l-54,0C204,782 207,809 213,829C218,848 231,864 251,876C271,888 302,894 343,894z"
   id="glyph484" />
<glyph
   unicode="Ā"
   horiz-adv-x="684"
   d="M567,0l-71,183l-310,0l-71,-183l-87,0l260,688l108,0l260,-688M343,595l-5,0l-126,-331l257,0M220,807l0,80l244,0l0,-80z"
   id="glyph486" />
<glyph
   unicode="Ą"
   horiz-adv-x="684"
   d="M625,-139l17,1l0,-56C618,-195 605,-196 603,-196C539,-196 507,-170 507,-118C507,-99 512,-79 523,-58C534,-37 548,-17 566,1l-70,182l-310,0l-71,-183l-87,0l260,688l108,0l260,-688l-19,0C622,-12 609,-28 597,-47C584,-66 578,-84 578,-99C578,-126 594,-139 625,-139M212,264l257,0l-126,331l-5,0z"
   id="glyph488" />
<glyph
   unicode="Å"
   horiz-adv-x="684"
   d="M656,0l-89,0l-71,183l-310,0l-71,-183l-87,0l252,675C260,678 246,684 237,693C228,701 222,711 219,724C216,736 215,754 215,777C215,806 217,828 222,842C227,856 238,867 256,874C273,881 302,885 341,885C381,885 410,881 428,874C446,867 458,856 463,842C468,828 470,806 470,777C470,754 469,736 466,724C463,711 457,701 448,693C439,684 424,678 404,675M341,716C366,716 383,718 394,721C405,724 411,730 414,738C416,745 417,758 417,777C417,796 416,809 414,817C411,824 405,830 394,834C383,837 366,839 341,839C317,839 300,837 290,834C280,830 274,824 272,817C269,809 268,796 268,777C268,758 269,745 272,738C274,730 280,724 290,721C300,718 317,716 341,716M212,264l257,0l-126,331l-5,0z"
   id="glyph490" />
<glyph
   unicode="Ǻ"
   horiz-adv-x="684"
   d="M656,0l-89,0l-71,183l-310,0l-71,-183l-87,0l252,675C260,678 246,684 237,693C228,701 222,711 219,724C216,736 215,754 215,777C215,806 217,828 222,842C227,856 238,867 256,874C273,881 302,885 341,885C381,885 410,881 428,874C446,867 458,856 463,842C468,828 470,806 470,777C470,754 469,736 466,724C463,711 457,701 448,693C439,684 424,678 404,675M341,716C366,716 383,718 394,721C405,724 411,730 414,738C416,745 417,758 417,777C417,796 416,809 414,817C411,824 405,830 394,834C383,837 366,839 341,839C317,839 300,837 290,834C280,830 274,824 272,817C269,809 268,796 268,777C268,758 269,745 272,738C274,730 280,724 290,721C300,718 317,716 341,716M212,264l257,0l-126,331l-5,0M306,944l0,5l101,136l88,0l0,-5l-129,-136z"
   id="glyph492" />
<glyph
   unicode="Ã"
   horiz-adv-x="684"
   d="M567,0l-71,183l-310,0l-71,-183l-87,0l260,688l108,0l260,-688M343,595l-5,0l-126,-331l257,0M450,762C433,762 416,764 399,768C382,771 359,777 331,785C290,798 260,804 240,804C226,804 217,801 214,794C211,787 209,772 209,751l-47,0C162,780 164,803 167,819C170,835 177,847 188,856C198,864 214,868 235,868C252,868 269,866 286,863C302,859 325,853 354,844C357,843 366,841 380,837C393,833 406,830 417,828C428,826 437,825 445,825C459,825 468,829 471,836C474,843 476,858 476,879l47,0C523,849 521,826 518,810C515,794 508,782 498,774C487,766 471,762 450,762z"
   id="glyph494" />
<glyph
   unicode="Æ"
   horiz-adv-x="956"
   d="M531,0l-50,183l-310,0l-91,-183l-87,0l335,688l571,0l0,-80l-443,0l63,-221l333,0l0,-80l-315,0l65,-227l297,0l0,-80M374,595l-5,0l-164,-331l258,0z"
   id="glyph496" />
<glyph
   unicode="Ǽ"
   horiz-adv-x="956"
   d="M531,0l-50,183l-310,0l-91,-183l-87,0l335,688l571,0l0,-80l-443,0l63,-221l333,0l0,-80l-315,0l65,-227l297,0l0,-80M374,595l-5,0l-164,-331l258,0M441,747l0,5l101,136l88,0l0,-5l-129,-136z"
   id="glyph498" />
<glyph
   unicode="B"
   horiz-adv-x="682"
   d="M100,688l320,0C485,688 532,673 561,644C589,615 603,572 603,515C603,469 594,433 575,406C556,379 526,361 485,353l0,-4C532,340 565,322 583,294C601,266 610,228 610,181C610,125 596,81 569,49C541,16 490,0 417,0l-317,0M517,498C517,526 513,548 506,563C499,578 486,590 469,597C451,604 425,608 392,608l-206,0l0,-220l206,0C435,388 466,397 487,415C507,433 517,461 517,498M524,194C524,235 514,265 495,282C476,299 443,308 396,308l-210,0l0,-228l210,0C429,80 455,84 474,91C492,98 505,110 513,127C520,143 524,165 524,194z"
   id="glyph500" />
<glyph
   unicode="C"
   horiz-adv-x="575"
   d="M354,-8C271,-8 211,1 173,19C135,37 110,70 97,118C84,165 77,241 77,344C77,447 84,522 97,570C110,618 135,651 173,669C211,687 271,696 354,696C381,696 410,695 440,692C470,689 495,686 514,681l0,-75C464,613 418,616 376,616C306,616 257,611 230,600C202,589 184,566 175,531C166,496 162,433 162,344C162,255 166,192 175,157C184,122 202,99 230,88C257,77 306,72 376,72C427,72 475,75 518,82l0,-77C497,1 472,-2 441,-4C410,-7 381,-8 354,-8z"
   id="glyph502" />
<glyph
   unicode="Ć"
   horiz-adv-x="575"
   d="M354,-8C271,-8 211,1 173,19C135,37 110,70 97,118C84,165 77,241 77,344C77,447 84,522 97,570C110,618 135,651 173,669C211,687 271,696 354,696C381,696 410,695 440,692C470,689 495,686 514,681l0,-75C464,613 418,616 376,616C306,616 257,611 230,600C202,589 184,566 175,531C166,496 162,433 162,344C162,255 166,192 175,157C184,122 202,99 230,88C257,77 306,72 376,72C427,72 475,75 518,82l0,-77C497,1 472,-2 441,-4C410,-7 381,-8 354,-8M253,747l0,5l101,136l88,0l0,-5l-129,-136z"
   id="glyph504" />
<glyph
   unicode="Č"
   horiz-adv-x="575"
   d="M354,-8C271,-8 211,1 173,19C135,37 110,70 97,118C84,165 77,241 77,344C77,447 84,522 97,570C110,618 135,651 173,669C211,687 271,696 354,696C381,696 410,695 440,692C470,689 495,686 514,681l0,-75C464,613 418,616 376,616C306,616 257,611 230,600C202,589 184,566 175,531C166,496 162,433 162,344C162,255 166,192 175,157C184,122 202,99 230,88C257,77 306,72 376,72C427,72 475,75 518,82l0,-77C497,1 472,-2 441,-4C410,-7 381,-8 354,-8M245,746l-102,136l0,6l56,0l88,-96l89,96l56,0l0,-6l-102,-136z"
   id="glyph506" />
<glyph
   unicode="Ç"
   horiz-adv-x="575"
   d="M518,82l0,-77C497,1 472,-2 441,-4C410,-7 381,-8 354,-8C336,-8 323,-8 315,-7l-38,-183l-81,0l0,5l61,182C206,3 167,17 142,40C117,62 100,96 91,143C82,189 77,256 77,344C77,447 84,522 97,570C110,618 135,651 173,669C211,687 271,696 354,696C381,696 410,695 440,692C470,689 495,686 514,681l0,-75C464,613 418,616 376,616C306,616 257,611 230,600C202,589 184,566 175,531C166,496 162,433 162,344C162,255 166,192 175,157C184,122 202,99 230,88C257,77 306,72 376,72C427,72 475,75 518,82z"
   id="glyph508" />
<glyph
   unicode="Ĉ"
   horiz-adv-x="575"
   d="M354,-8C271,-8 211,1 173,19C135,37 110,70 97,118C84,165 77,241 77,344C77,447 84,522 97,570C110,618 135,651 173,669C211,687 271,696 354,696C381,696 410,695 440,692C470,689 495,686 514,681l0,-75C464,613 418,616 376,616C306,616 257,611 230,600C202,589 184,566 175,531C166,496 162,433 162,344C162,255 166,192 175,157C184,122 202,99 230,88C257,77 306,72 376,72C427,72 475,75 518,82l0,-77C497,1 472,-2 441,-4C410,-7 381,-8 354,-8M143,746l0,7l102,135l85,0l102,-135l0,-7l-56,0l-89,96l-88,-96z"
   id="glyph510" />
<glyph
   unicode="Ċ"
   horiz-adv-x="575"
   d="M354,-8C271,-8 211,1 173,19C135,37 110,70 97,118C84,165 77,241 77,344C77,447 84,522 97,570C110,618 135,651 173,669C211,687 271,696 354,696C381,696 410,695 440,692C470,689 495,686 514,681l0,-75C464,613 418,616 376,616C306,616 257,611 230,600C202,589 184,566 175,531C166,496 162,433 162,344C162,255 166,192 175,157C184,122 202,99 230,88C257,77 306,72 376,72C427,72 475,75 518,82l0,-77C497,1 472,-2 441,-4C410,-7 381,-8 354,-8M249,792l0,83l77,0l0,-83z"
   id="glyph512" />
<glyph
   unicode="D"
   horiz-adv-x="689"
   d="M100,688l219,0C414,688 482,680 521,663C560,646 585,615 596,571C607,527 612,451 612,344C612,237 607,161 596,117C585,73 560,43 521,26C482,9 414,0 319,0l-219,0M305,80C383,80 436,84 463,93C490,101 507,122 515,155C523,188 527,251 527,344C527,437 523,500 515,533C506,566 489,587 462,596C435,604 382,608 305,608l-119,0l0,-528z"
   id="glyph514" />
<glyph
   unicode="Ǳ"
   horiz-adv-x="1296"
   d="M100,688l219,0C414,688 482,680 521,663C560,646 585,615 596,571C607,527 612,451 612,344C612,237 607,161 596,117C585,73 560,43 521,26C482,9 414,0 319,0l-219,0M305,80C383,80 436,84 463,93C490,101 507,122 515,155C523,188 527,251 527,344C527,437 523,500 515,533C506,566 489,587 462,596C435,604 382,608 305,608l-119,0l0,-528M743,0l0,76l388,532l-377,0l0,80l486,0l0,-74l-390,-534l395,0l0,-80z"
   id="glyph516" />
<glyph
   unicode="Ǆ"
   horiz-adv-x="1296"
   d="M100,688l219,0C414,688 482,680 521,663C560,646 585,615 596,571C607,527 612,451 612,344C612,237 607,161 596,117C585,73 560,43 521,26C482,9 414,0 319,0l-219,0M305,80C383,80 436,84 463,93C490,101 507,122 515,155C523,188 527,251 527,344C527,437 523,500 515,533C506,566 489,587 462,596C435,604 382,608 305,608l-119,0l0,-528M743,0l0,76l388,532l-377,0l0,80l486,0l0,-74l-390,-534l395,0l0,-80M955,746l-102,136l0,6l56,0l88,-96l89,96l56,0l0,-6l-102,-136z"
   id="glyph518" />
<glyph
   unicode="Ð"
   horiz-adv-x="689"
   d="M100,311l-68,0l0,75l68,0l0,302l219,0C414,688 482,680 521,663C560,646 585,615 596,571C607,527 612,451 612,344C612,237 607,161 596,117C585,73 560,43 521,26C482,9 414,0 319,0l-219,0M527,344C527,437 523,500 515,533C506,566 489,587 462,596C435,604 382,608 305,608l-119,0l0,-222l110,0l0,-75l-110,0l0,-231l119,0C383,80 436,84 463,93C490,101 507,122 515,155C523,188 527,251 527,344z"
   id="glyph520" />
<glyph
   unicode="Ď"
   horiz-adv-x="689"
   d="M100,688l219,0C414,688 482,680 521,663C560,646 585,615 596,571C607,527 612,451 612,344C612,237 607,161 596,117C585,73 560,43 521,26C482,9 414,0 319,0l-219,0M305,80C383,80 436,84 463,93C490,101 507,122 515,155C523,188 527,251 527,344C527,437 523,500 515,533C506,566 489,587 462,596C435,604 382,608 305,608l-119,0l0,-528M302,746l-102,136l0,6l56,0l88,-96l89,96l56,0l0,-6l-102,-136z"
   id="glyph522" />
<glyph
   unicode="Đ"
   horiz-adv-x="689"
   d="M100,311l-68,0l0,75l68,0l0,302l219,0C414,688 482,680 521,663C560,646 585,615 596,571C607,527 612,451 612,344C612,237 607,161 596,117C585,73 560,43 521,26C482,9 414,0 319,0l-219,0M527,344C527,437 523,500 515,533C506,566 489,587 462,596C435,604 382,608 305,608l-119,0l0,-222l110,0l0,-75l-110,0l0,-231l119,0C383,80 436,84 463,93C490,101 507,122 515,155C523,188 527,251 527,344z"
   id="glyph524" />
<glyph
   unicode="Ḍ"
   horiz-adv-x="689"
   d="M100,688l219,0C414,688 482,680 521,663C560,646 585,615 596,571C607,527 612,451 612,344C612,237 607,161 596,117C585,73 560,43 521,26C482,9 414,0 319,0l-219,0M305,80C383,80 436,84 463,93C490,101 507,122 515,155C523,188 527,251 527,344C527,437 523,500 515,533C506,566 489,587 462,596C435,604 382,608 305,608l-119,0l0,-528M298,-165l0,103l95,0l0,-103z"
   id="glyph526" />
<glyph
   unicode="ǲ"
   horiz-adv-x="1197"
   d="M100,688l219,0C414,688 482,680 521,663C560,646 585,615 596,571C607,527 612,451 612,344C612,237 607,161 596,117C585,73 560,43 521,26C482,9 414,0 319,0l-219,0M305,80C383,80 436,84 463,93C490,101 507,122 515,155C523,188 527,251 527,344C527,437 523,500 515,533C506,566 489,587 462,596C435,604 382,608 305,608l-119,0l0,-528M741,0l0,69l297,367l-285,0l0,74l390,0l0,-69l-296,-367l298,0l0,-74z"
   id="glyph528" />
<glyph
   unicode="ǅ"
   horiz-adv-x="1197"
   d="M100,688l219,0C414,688 482,680 521,663C560,646 585,615 596,571C607,527 612,451 612,344C612,237 607,161 596,117C585,73 560,43 521,26C482,9 414,0 319,0l-219,0M305,80C383,80 436,84 463,93C490,101 507,122 515,155C523,188 527,251 527,344C527,437 523,500 515,533C506,566 489,587 462,596C435,604 382,608 305,608l-119,0l0,-528M741,0l0,69l297,367l-285,0l0,74l390,0l0,-69l-296,-367l298,0l0,-74M909,601l-102,136l0,6l56,0l88,-96l89,96l56,0l0,-6l-102,-136z"
   id="glyph530" />
<glyph
   unicode="E"
   horiz-adv-x="604"
   d="M100,0l0,688l448,0l0,-80l-362,0l0,-221l314,0l0,-80l-314,0l0,-227l362,0l0,-80z"
   id="glyph532" />
<glyph
   unicode="É"
   horiz-adv-x="604"
   d="M100,0l0,688l448,0l0,-80l-362,0l0,-221l314,0l0,-80l-314,0l0,-227l362,0l0,-80M289,750l0,5l101,136l88,0l0,-5l-129,-136z"
   id="glyph534" />
<glyph
   unicode="Ĕ"
   horiz-adv-x="604"
   d="M100,0l0,688l448,0l0,-80l-362,0l0,-221l314,0l0,-80l-314,0l0,-227l362,0l0,-80M323,743C282,743 251,749 232,761C212,772 199,788 194,808C189,827 186,854 186,888l53,0C239,864 240,846 243,835C246,824 253,815 265,808C277,801 296,798 323,798C350,798 369,801 381,808C393,815 401,824 404,836C407,847 408,865 408,888l54,0C462,855 459,828 454,809C448,789 435,773 415,761C395,749 364,743 323,743z"
   id="glyph536" />
<glyph
   unicode="Ě"
   horiz-adv-x="604"
   d="M100,0l0,688l448,0l0,-80l-362,0l0,-221l314,0l0,-80l-314,0l0,-227l362,0l0,-80M281,746l-102,136l0,6l56,0l88,-96l89,96l56,0l0,-6l-102,-136z"
   id="glyph538" />
<glyph
   unicode="Ê"
   horiz-adv-x="604"
   d="M100,0l0,688l448,0l0,-80l-362,0l0,-221l314,0l0,-80l-314,0l0,-227l362,0l0,-80M180,750l0,7l102,135l85,0l102,-135l0,-7l-56,0l-89,96l-88,-96z"
   id="glyph540" />
<glyph
   unicode="Ế"
   horiz-adv-x="604"
   d="M100,0l0,688l448,0l0,-80l-362,0l0,-221l314,0l0,-80l-314,0l0,-227l362,0l0,-80M176,746l0,7l102,135l85,0l102,-135l0,-7l-56,0l-89,96l-88,-96M369,907l0,5l101,136l88,0l0,-5l-129,-136z"
   id="glyph542" />
<glyph
   unicode="Ệ"
   horiz-adv-x="604"
   d="M100,0l0,688l448,0l0,-80l-362,0l0,-221l314,0l0,-80l-314,0l0,-227l362,0l0,-80M277,-165l0,103l95,0l0,-103M179,746l0,7l102,135l85,0l102,-135l0,-7l-56,0l-89,96l-88,-96z"
   id="glyph544" />
<glyph
   unicode="Ề"
   horiz-adv-x="604"
   d="M100,0l0,688l448,0l0,-80l-362,0l0,-221l314,0l0,-80l-314,0l0,-227l362,0l0,-80M176,746l0,7l102,135l85,0l102,-135l0,-7l-56,0l-89,96l-88,-96M408,907l-129,136l0,5l88,0l101,-136l0,-5z"
   id="glyph546" />
<glyph
   unicode="Ể"
   horiz-adv-x="604"
   d="M100,0l0,688l448,0l0,-80l-362,0l0,-221l314,0l0,-80l-314,0l0,-227l362,0l0,-80M179,746l0,7l102,135l85,0l102,-135l0,-7l-56,0l-89,96l-88,-96M362,908C362,926 365,939 371,946C377,953 389,959 407,964l22,7C452,976 466,981 472,986C478,991 481,999 481,1011C481,1028 476,1038 466,1042C455,1046 434,1048 402,1048C369,1048 332,1046 291,1043l0,46C325,1094 364,1097 407,1097C440,1097 465,1095 483,1092C501,1088 515,1080 524,1069C533,1058 538,1041 538,1018C538,995 534,978 526,968C517,957 501,949 476,942l-24,-7C438,931 428,928 423,926C418,923 414,920 413,917C412,913 411,907 411,899l-49,0z"
   id="glyph548" />
<glyph
   unicode="Ễ"
   horiz-adv-x="604"
   d="M100,0l0,688l448,0l0,-80l-362,0l0,-221l314,0l0,-80l-314,0l0,-227l362,0l0,-80M177,746l0,7l102,135l85,0l102,-135l0,-7l-56,0l-89,96l-88,-96M431,945C414,945 397,947 380,951C363,954 340,960 312,968C271,981 241,987 221,987C207,987 198,984 195,977C192,970 190,955 190,934l-47,0C143,963 145,986 148,1002C151,1018 158,1030 169,1039C179,1047 195,1051 216,1051C233,1051 250,1049 267,1046C283,1042 306,1036 335,1027C338,1026 347,1024 361,1020C374,1016 387,1013 398,1011C409,1009 418,1008 426,1008C440,1008 449,1012 452,1019C455,1026 457,1041 457,1062l47,0C504,1032 502,1009 499,993C496,977 489,965 479,957C468,949 452,945 431,945z"
   id="glyph550" />
<glyph
   unicode="Ȅ"
   horiz-adv-x="604"
   d="M100,0l0,688l448,0l0,-80l-362,0l0,-221l314,0l0,-80l-314,0l0,-227l362,0l0,-80M267,752l-53,0l-121,126l0,5l77,0l97,-126M459,752l-52,0l-121,126l0,5l77,0l96,-126z"
   id="glyph552" />
<glyph
   unicode="Ë"
   horiz-adv-x="604"
   d="M100,0l0,688l448,0l0,-80l-362,0l0,-221l314,0l0,-80l-314,0l0,-227l362,0l0,-80M197,775l0,83l77,0l0,-83M386,775l0,83l76,0l0,-83z"
   id="glyph554" />
<glyph
   unicode="Ė"
   horiz-adv-x="604"
   d="M100,0l0,688l448,0l0,-80l-362,0l0,-221l314,0l0,-80l-314,0l0,-227l362,0l0,-80M285,792l0,83l77,0l0,-83z"
   id="glyph556" />
<glyph
   unicode="Ẹ"
   horiz-adv-x="604"
   d="M100,0l0,688l448,0l0,-80l-362,0l0,-221l314,0l0,-80l-314,0l0,-227l362,0l0,-80M277,-165l0,103l95,0l0,-103z"
   id="glyph558" />
<glyph
   unicode="È"
   horiz-adv-x="604"
   d="M100,0l0,688l448,0l0,-80l-362,0l0,-221l314,0l0,-80l-314,0l0,-227l362,0l0,-80M313,750l-129,136l0,5l88,0l101,-136l0,-5z"
   id="glyph560" />
<glyph
   unicode="Ẻ"
   horiz-adv-x="604"
   d="M100,0l0,688l448,0l0,-80l-362,0l0,-221l314,0l0,-80l-314,0l0,-227l362,0l0,-80M271,740C271,758 274,771 280,778C286,785 298,791 316,796l22,6C361,808 375,813 381,818C387,823 390,831 390,843C390,855 387,864 382,869C376,874 368,878 357,879C346,880 327,880 302,880C269,880 235,878 200,875l0,46C237,926 276,928 316,928C349,928 374,926 392,923C410,920 424,912 433,901C442,890 447,872 447,849C447,826 443,809 435,799C426,788 410,780 385,773l-24,-6C348,763 338,760 333,758C327,755 323,752 322,749C321,745 320,739 320,731l-49,0z"
   id="glyph562" />
<glyph
   unicode="Ȇ"
   horiz-adv-x="604"
   d="M100,0l0,688l448,0l0,-80l-362,0l0,-221l314,0l0,-80l-314,0l0,-227l362,0l0,-80M325,894C366,894 397,888 417,877C436,865 449,849 454,830C459,810 462,783 462,749l-53,0C409,773 408,791 405,802C402,813 395,822 383,829C371,836 352,839 325,839C298,839 279,836 267,829C255,822 248,813 245,802C242,790 240,772 240,749l-54,0C186,782 189,809 195,829C200,848 213,864 233,876C253,888 284,894 325,894z"
   id="glyph564" />
<glyph
   unicode="Ē"
   horiz-adv-x="604"
   d="M100,0l0,688l448,0l0,-80l-362,0l0,-221l314,0l0,-80l-314,0l0,-227l362,0l0,-80M202,807l0,80l244,0l0,-80z"
   id="glyph566" />
<glyph
   unicode="Ę"
   horiz-adv-x="604"
   d="M409,-121C409,-81 431,-41 476,0l-376,0l0,688l448,0l0,-80l-362,0l0,-221l314,0l0,-80l-314,0l0,-227l362,0l0,-80C531,-11 516,-27 501,-46C486,-66 479,-84 479,-101C479,-112 483,-121 490,-128C497,-135 509,-139 525,-139l18,1l0,-56C541,-194 537,-194 531,-195C525,-196 516,-196 504,-196C470,-196 446,-189 431,-175C416,-162 409,-144 409,-121z"
   id="glyph568" />
<glyph
   unicode="Ẽ"
   horiz-adv-x="604"
   d="M100,0l0,688l448,0l0,-80l-362,0l0,-221l314,0l0,-80l-314,0l0,-227l362,0l0,-80M431,772C414,772 397,774 380,778C363,781 340,787 312,795C271,808 241,814 221,814C207,814 198,811 195,804C192,797 190,782 190,761l-47,0C143,790 145,813 148,829C151,845 158,857 169,866C179,874 195,878 216,878C233,878 250,876 267,873C283,869 306,863 335,854C338,853 347,851 361,847C374,843 387,840 398,838C409,836 418,835 426,835C440,835 449,839 452,846C455,853 457,868 457,889l47,0C504,859 502,836 499,820C496,804 489,792 479,784C468,776 452,772 431,772z"
   id="glyph570" />
<glyph
   unicode="F"
   horiz-adv-x="566"
   d="M100,0l0,688l428,0l0,-80l-342,0l0,-236l304,0l0,-81l-304,0l0,-291z"
   id="glyph572" />
<glyph
   unicode="G"
   horiz-adv-x="677"
   d="M350,294l0,79l238,0l0,-361C555,6 519,1 478,-2C437,-6 400,-8 369,-8C285,-8 223,1 183,20C142,38 115,71 100,120C85,168 77,243 77,344C77,445 85,519 100,568C115,617 143,650 184,669C224,687 286,696 369,696C402,696 438,694 479,690C519,686 554,681 585,676l0,-76C509,611 451,616 411,616C332,616 277,612 246,603C215,594 193,572 181,535C168,498 162,435 162,344C162,260 167,200 176,163C185,126 204,102 232,89C260,76 306,70 370,70C390,70 413,71 440,73C467,74 488,76 505,78l0,216z"
   id="glyph574" />
<glyph
   unicode="Ǵ"
   horiz-adv-x="677"
   d="M350,294l0,79l238,0l0,-361C555,6 519,1 478,-2C437,-6 400,-8 369,-8C285,-8 223,1 183,20C142,38 115,71 100,120C85,168 77,243 77,344C77,445 85,519 100,568C115,617 143,650 184,669C224,687 286,696 369,696C402,696 438,694 479,690C519,686 554,681 585,676l0,-76C509,611 451,616 411,616C332,616 277,612 246,603C215,594 193,572 181,535C168,498 162,435 162,344C162,260 167,200 176,163C185,126 204,102 232,89C260,76 306,70 370,70C390,70 413,71 440,73C467,74 488,76 505,78l0,216M304,747l0,5l101,136l88,0l0,-5l-129,-136z"
   id="glyph576" />
<glyph
   unicode="Ğ"
   horiz-adv-x="677"
   d="M350,294l0,79l238,0l0,-361C555,6 519,1 478,-2C437,-6 400,-8 369,-8C285,-8 223,1 183,20C142,38 115,71 100,120C85,168 77,243 77,344C77,445 85,519 100,568C115,617 143,650 184,669C224,687 286,696 369,696C402,696 438,694 479,690C519,686 554,681 585,676l0,-76C509,611 451,616 411,616C332,616 277,612 246,603C215,594 193,572 181,535C168,498 162,435 162,344C162,260 167,200 176,163C185,126 204,102 232,89C260,76 306,70 370,70C390,70 413,71 440,73C467,74 488,76 505,78l0,216M338,743C297,743 266,749 247,761C227,772 214,788 209,808C204,827 201,854 201,888l53,0C254,864 255,846 258,835C261,824 268,815 280,808C292,801 311,798 338,798C365,798 384,801 396,808C408,815 416,824 419,836C422,847 423,865 423,888l54,0C477,855 474,828 469,809C463,789 450,773 430,761C410,749 379,743 338,743z"
   id="glyph578" />
<glyph
   unicode="Ǧ"
   horiz-adv-x="677"
   d="M350,294l0,79l238,0l0,-361C555,6 519,1 478,-2C437,-6 400,-8 369,-8C285,-8 223,1 183,20C142,38 115,71 100,120C85,168 77,243 77,344C77,445 85,519 100,568C115,617 143,650 184,669C224,687 286,696 369,696C402,696 438,694 479,690C519,686 554,681 585,676l0,-76C509,611 451,616 411,616C332,616 277,612 246,603C215,594 193,572 181,535C168,498 162,435 162,344C162,260 167,200 176,163C185,126 204,102 232,89C260,76 306,70 370,70C390,70 413,71 440,73C467,74 488,76 505,78l0,216M296,746l-102,136l0,6l56,0l88,-96l89,96l56,0l0,-6l-102,-136z"
   id="glyph580" />
<glyph
   unicode="Ĝ"
   horiz-adv-x="677"
   d="M350,294l0,79l238,0l0,-361C555,6 519,1 478,-2C437,-6 400,-8 369,-8C285,-8 223,1 183,20C142,38 115,71 100,120C85,168 77,243 77,344C77,445 85,519 100,568C115,617 143,650 184,669C224,687 286,696 369,696C402,696 438,694 479,690C519,686 554,681 585,676l0,-76C509,611 451,616 411,616C332,616 277,612 246,603C215,594 193,572 181,535C168,498 162,435 162,344C162,260 167,200 176,163C185,126 204,102 232,89C260,76 306,70 370,70C390,70 413,71 440,73C467,74 488,76 505,78l0,216M194,746l0,7l102,135l85,0l102,-135l0,-7l-56,0l-89,96l-88,-96z"
   id="glyph582" />
<glyph
   unicode="Ģ"
   horiz-adv-x="677"
   d="M350,294l0,79l238,0l0,-361C555,6 519,1 478,-2C437,-6 400,-8 369,-8C285,-8 223,1 183,20C142,38 115,71 100,120C85,168 77,243 77,344C77,445 85,519 100,568C115,617 143,650 184,669C224,687 286,696 369,696C402,696 438,694 479,690C519,686 554,681 585,676l0,-76C509,611 451,616 411,616C332,616 277,612 246,603C215,594 193,572 181,535C168,498 162,435 162,344C162,260 167,200 176,163C185,126 204,102 232,89C260,76 306,70 370,70C390,70 413,71 440,73C467,74 488,76 505,78l0,216M340,-178l0,17l-37,0l0,99l91,0l0,-81C394,-178 391,-204 386,-221C381,-238 370,-249 355,-256C340,-263 315,-266 282,-266l0,40C306,-226 322,-223 329,-216C336,-210 340,-197 340,-178z"
   id="glyph584" />
<glyph
   unicode="Ġ"
   horiz-adv-x="677"
   d="M350,294l0,79l238,0l0,-361C555,6 519,1 478,-2C437,-6 400,-8 369,-8C285,-8 223,1 183,20C142,38 115,71 100,120C85,168 77,243 77,344C77,445 85,519 100,568C115,617 143,650 184,669C224,687 286,696 369,696C402,696 438,694 479,690C519,686 554,681 585,676l0,-76C509,611 451,616 411,616C332,616 277,612 246,603C215,594 193,572 181,535C168,498 162,435 162,344C162,260 167,200 176,163C185,126 204,102 232,89C260,76 306,70 370,70C390,70 413,71 440,73C467,74 488,76 505,78l0,216M300,792l0,83l77,0l0,-83z"
   id="glyph586" />
<glyph
   unicode="H"
   horiz-adv-x="732"
   d="M547,0l0,305l-361,0l0,-305l-86,0l0,688l86,0l0,-300l361,0l0,300l85,0l0,-688z"
   id="glyph588" />
<glyph
   unicode="Ħ"
   horiz-adv-x="732"
   d="M547,688l85,0l0,-688l-85,0l0,273l-361,0l0,-273l-86,0l0,688l86,0l0,-133l361,0M186,356l361,0l0,124l-361,0z"
   id="glyph590" />
<glyph
   unicode="Ĥ"
   horiz-adv-x="732"
   d="M547,0l0,305l-361,0l0,-305l-86,0l0,688l86,0l0,-300l361,0l0,300l85,0l0,-688M221,746l0,7l102,135l85,0l102,-135l0,-7l-56,0l-89,96l-88,-96z"
   id="glyph592" />
<glyph
   unicode="Ḥ"
   horiz-adv-x="732"
   d="M547,0l0,305l-361,0l0,-305l-86,0l0,688l86,0l0,-300l361,0l0,300l85,0l0,-688M319,-165l0,103l95,0l0,-103z"
   id="glyph594" />
<glyph
   unicode="I"
   horiz-adv-x="286"
   d="M100,0l0,688l86,0l0,-688z"
   id="glyph596" />
<glyph
   unicode="Ĳ"
   horiz-adv-x="641"
   d="M100,0l0,688l86,0l0,-688M463,254l0,434l86,0l0,-404C549,185 545,118 537,83C529,48 511,25 483,16C454,6 400,1 320,0l0,76C371,77 405,81 423,88C440,94 451,108 456,129C461,150 463,192 463,254z"
   id="glyph598" />
<glyph
   unicode="Í"
   horiz-adv-x="286"
   d="M100,0l0,688l86,0l0,-688M98,750l0,5l101,136l88,0l0,-5l-129,-136z"
   id="glyph600" />
<glyph
   unicode="Ĭ"
   horiz-adv-x="286"
   d="M100,0l0,688l86,0l0,-688M142,743C101,743 70,749 51,761C31,772 18,788 13,808C8,827 5,854 5,888l53,0C58,864 59,846 62,835C65,824 72,815 84,808C96,801 115,798 142,798C169,798 188,801 200,808C212,815 220,824 223,836C226,847 227,865 227,888l54,0C281,855 278,828 273,809C267,789 254,773 234,761C214,749 183,743 142,743z"
   id="glyph602" />
<glyph
   unicode="Ǐ"
   horiz-adv-x="286"
   d="M100,0l0,688l86,0l0,-688M100,746l-102,136l0,6l56,0l88,-96l89,96l56,0l0,-6l-102,-136z"
   id="glyph604" />
<glyph
   unicode="Î"
   horiz-adv-x="286"
   d="M100,0l0,688l86,0l0,-688M-2,750l0,7l102,135l85,0l102,-135l0,-7l-56,0l-89,96l-88,-96z"
   id="glyph606" />
<glyph
   unicode="Ȉ"
   horiz-adv-x="286"
   d="M100,0l0,688l86,0l0,-688M86,752l-53,0l-121,126l0,5l77,0l97,-126M278,752l-52,0l-121,126l0,5l77,0l96,-126z"
   id="glyph608" />
<glyph
   unicode="Ï"
   horiz-adv-x="286"
   d="M100,0l0,688l86,0l0,-688M10,775l0,83l77,0l0,-83M199,775l0,83l76,0l0,-83z"
   id="glyph610" />
<glyph
   unicode="İ"
   horiz-adv-x="286"
   d="M100,0l0,688l86,0l0,-688M104,792l0,83l77,0l0,-83z"
   id="glyph612" />
<glyph
   unicode="Ị"
   horiz-adv-x="286"
   d="M100,0l0,688l86,0l0,-688M96,-165l0,103l95,0l0,-103z"
   id="glyph614" />
<glyph
   unicode="Ì"
   horiz-adv-x="286"
   d="M100,0l0,688l86,0l0,-688M132,750l-129,136l0,5l88,0l101,-136l0,-5z"
   id="glyph616" />
<glyph
   unicode="Ỉ"
   horiz-adv-x="286"
   d="M100,0l0,688l86,0l0,-688M90,740C90,758 93,771 99,778C105,785 117,791 135,796l22,6C180,808 194,813 200,818C206,823 209,831 209,843C209,855 206,864 201,869C195,874 187,878 176,879C165,880 146,880 121,880C88,880 54,878 19,875l0,46C56,926 95,928 135,928C168,928 193,926 211,923C229,920 243,912 252,901C261,890 266,872 266,849C266,826 262,809 254,799C245,788 229,780 204,773l-24,-6C167,763 157,760 152,758C146,755 142,752 141,749C140,745 139,739 139,731l-49,0z"
   id="glyph618" />
<glyph
   unicode="Ȋ"
   horiz-adv-x="286"
   d="M100,0l0,688l86,0l0,-688M144,894C185,894 216,888 236,877C255,865 268,849 273,830C278,810 281,783 281,749l-53,0C228,773 227,791 224,802C221,813 214,822 202,829C190,836 171,839 144,839C117,839 98,836 86,829C74,822 67,813 64,802C61,790 59,772 59,749l-54,0C5,782 8,809 14,829C19,848 32,864 52,876C72,888 103,894 144,894z"
   id="glyph620" />
<glyph
   unicode="Ī"
   horiz-adv-x="286"
   d="M100,0l0,688l86,0l0,-688M21,807l0,80l244,0l0,-80z"
   id="glyph622" />
<glyph
   unicode="Į"
   horiz-adv-x="286"
   d="M52,-118C52,-99 58,-79 69,-58C80,-37 95,-17 114,0l-14,0l0,688l86,0l0,-688C171,-11 157,-26 144,-45C130,-65 123,-83 123,-99C123,-126 139,-139 170,-139l17,1l0,-56C185,-194 180,-194 172,-195C164,-196 156,-196 147,-196C84,-196 52,-170 52,-118z"
   id="glyph624" />
<glyph
   unicode="Ĩ"
   horiz-adv-x="286"
   d="M100,0l0,688l86,0l0,-688M250,772C233,772 216,774 199,778C182,781 159,787 131,795C90,808 60,814 40,814C26,814 17,811 14,804C11,797 9,782 9,761l-47,0C-38,790 -36,813 -33,829C-30,845 -23,857 -12,866C-2,874 14,878 35,878C52,878 69,876 86,873C102,869 125,863 154,854C157,853 166,851 180,847C193,843 206,840 217,838C228,836 237,835 245,835C259,835 268,839 271,846C274,853 276,868 276,889l47,0C323,859 321,836 318,820C315,804 308,792 298,784C287,776 271,772 250,772z"
   id="glyph626" />
<glyph
   unicode="J"
   horiz-adv-x="355"
   d="M177,254l0,434l86,0l0,-404C263,185 259,118 251,83C243,48 225,25 197,16C168,6 114,1 34,0l0,76C85,77 119,81 137,88C154,94 165,108 170,129C175,150 177,192 177,254z"
   id="glyph628" />
<glyph
   unicode="Ĵ"
   horiz-adv-x="355"
   d="M177,254l0,434l86,0l0,-404C263,185 259,118 251,83C243,48 225,25 197,16C168,6 114,1 34,0l0,76C85,77 119,81 137,88C154,94 165,108 170,129C175,150 177,192 177,254M75,746l0,7l102,135l85,0l102,-135l0,-7l-56,0l-89,96l-88,-96z"
   id="glyph630" />
<glyph
   unicode="K"
   horiz-adv-x="671"
   d="M544,0l-234,310l-124,0l0,-310l-86,0l0,688l86,0l0,-298l124,0l235,298l96,0l-262,-333l265,-355z"
   id="glyph632" />
<glyph
   unicode="Ķ"
   horiz-adv-x="671"
   d="M544,0l-234,310l-124,0l0,-310l-86,0l0,688l86,0l0,-298l124,0l235,298l96,0l-262,-333l265,-355M337,-178l0,17l-37,0l0,99l91,0l0,-81C391,-178 388,-204 383,-221C378,-238 367,-249 352,-256C337,-263 312,-266 279,-266l0,40C303,-226 319,-223 326,-216C333,-210 337,-197 337,-178z"
   id="glyph634" />
<glyph
   unicode="L"
   horiz-adv-x="538"
   d="M100,0l0,688l86,0l0,-605l321,0l0,-83z"
   id="glyph636" />
<glyph
   unicode="Ǉ"
   horiz-adv-x="893"
   d="M100,0l0,688l86,0l0,-605l321,0l0,-83M715,254l0,434l86,0l0,-404C801,185 797,118 789,83C781,48 763,25 735,16C706,6 652,1 572,0l0,76C623,77 657,81 675,88C692,94 703,108 708,129C713,150 715,192 715,254z"
   id="glyph638" />
<glyph
   unicode="Ĺ"
   horiz-adv-x="538"
   d="M100,0l0,688l86,0l0,-605l321,0l0,-83M108,747l0,5l101,136l88,0l0,-5l-129,-136z"
   id="glyph640" />
<glyph
   unicode="Ľ"
   horiz-adv-x="538"
   d="M100,0l0,688l86,0l0,-605l321,0l0,-83M328,442l14,172l0,74l79,0l0,-74l-37,-172z"
   id="glyph642" />
<glyph
   unicode="Ļ"
   horiz-adv-x="538"
   d="M100,0l0,688l86,0l0,-605l321,0l0,-83M290,-178l0,17l-37,0l0,99l91,0l0,-81C344,-178 341,-204 336,-221C331,-238 320,-249 305,-256C290,-263 265,-266 232,-266l0,40C256,-226 272,-223 279,-216C286,-210 290,-197 290,-178z"
   id="glyph644" />
<glyph
   unicode="Ŀ"
   horiz-adv-x="538"
   d="M100,0l0,688l86,0l0,-605l321,0l0,-83M367,316l0,103l95,0l0,-103z"
   id="glyph646" />
<glyph
   unicode="ǈ"
   horiz-adv-x="792"
   d="M100,0l0,688l86,0l0,-605l321,0l0,-83M622,650l0,93l86,0l0,-93M529,-132C558,-132 580,-130 593,-127C606,-124 615,-118 619,-111C623,-104 625,-92 625,-77l0,587l81,0l0,-567C706,-101 701,-133 690,-153C679,-173 662,-186 639,-191C615,-197 578,-200 529,-200z"
   id="glyph648" />
<glyph
   unicode="Ł"
   horiz-adv-x="538"
   d="M186,83l321,0l0,-83l-407,0l0,288l-64,-24l0,72l64,24l0,328l86,0l0,-296l190,72l0,-72l-190,-72z"
   id="glyph650" />
<glyph
   unicode="M"
   horiz-adv-x="907"
   d="M723,0l0,541l-4,0l-236,-541l-63,0l-235,541l-4,0l0,-541l-81,0l0,688l116,0l235,-535l5,0l235,535l116,0l0,-688z"
   id="glyph652" />
<glyph
   unicode="N"
   horiz-adv-x="732"
   d="M550,0l-363,526l-4,0l0,-526l-83,0l0,688l88,0l358,-514l4,0l0,514l82,0l0,-688z"
   id="glyph654" />
<glyph
   unicode="Ǌ"
   horiz-adv-x="1087"
   d="M550,0l-363,526l-4,0l0,-526l-83,0l0,688l88,0l358,-514l4,0l0,514l82,0l0,-688M909,254l0,434l86,0l0,-404C995,185 991,118 983,83C975,48 957,25 929,16C900,6 846,1 766,0l0,76C817,77 851,81 869,88C886,94 897,108 902,129C907,150 909,192 909,254z"
   id="glyph656" />
<glyph
   unicode="Ń"
   horiz-adv-x="732"
   d="M550,0l-363,526l-4,0l0,-526l-83,0l0,688l88,0l358,-514l4,0l0,514l82,0l0,-688M331,747l0,5l101,136l88,0l0,-5l-129,-136z"
   id="glyph658" />
<glyph
   unicode="Ň"
   horiz-adv-x="732"
   d="M550,0l-363,526l-4,0l0,-526l-83,0l0,688l88,0l358,-514l4,0l0,514l82,0l0,-688M323,746l-102,136l0,6l56,0l88,-96l89,96l56,0l0,-6l-102,-136z"
   id="glyph660" />
<glyph
   unicode="Ņ"
   horiz-adv-x="732"
   d="M550,0l-363,526l-4,0l0,-526l-83,0l0,688l88,0l358,-514l4,0l0,514l82,0l0,-688M367,-178l0,17l-37,0l0,99l91,0l0,-81C421,-178 418,-204 413,-221C408,-238 397,-249 382,-256C367,-263 342,-266 309,-266l0,40C333,-226 349,-223 356,-216C363,-210 367,-197 367,-178z"
   id="glyph662" />
<glyph
   unicode="Ṅ"
   horiz-adv-x="732"
   d="M550,0l-363,526l-4,0l0,-526l-83,0l0,688l88,0l358,-514l4,0l0,514l82,0l0,-688M327,792l0,83l77,0l0,-83z"
   id="glyph664" />
<glyph
   unicode="Ŋ"
   horiz-adv-x="732"
   d="M632,688l0,-745C632,-101 627,-133 616,-153C605,-173 588,-186 565,-191C541,-197 504,-200 454,-200l0,68C483,-132 505,-130 518,-127C531,-124 540,-118 544,-111C548,-104 550,-92 550,-77l0,77l-363,526l-4,0l0,-526l-83,0l0,688l88,0l358,-515l4,0l0,515z"
   id="glyph666" />
<glyph
   unicode="Ɲ"
   horiz-adv-x="732"
   d="M632,688l0,-688l-82,0l-363,526l-4,0l0,-583C183,-101 178,-133 167,-153C156,-173 138,-186 115,-191C91,-197 54,-200 4,-200l0,68C33,-132 55,-130 68,-127C81,-124 90,-118 94,-111C98,-104 100,-92 100,-77l0,765l88,0l358,-514l4,0l0,514z"
   id="glyph668" />
<glyph
   unicode="ǋ"
   horiz-adv-x="986"
   d="M550,0l-363,526l-4,0l0,-526l-83,0l0,688l88,0l358,-514l4,0l0,514l82,0l0,-688M816,650l0,93l86,0l0,-93M723,-132C752,-132 774,-130 787,-127C800,-124 809,-118 813,-111C817,-104 819,-92 819,-77l0,587l81,0l0,-567C900,-101 895,-133 884,-153C873,-173 856,-186 833,-191C809,-197 772,-200 723,-200z"
   id="glyph670" />
<glyph
   unicode="Ñ"
   horiz-adv-x="732"
   d="M550,0l-363,526l-4,0l0,-526l-83,0l0,688l88,0l358,-514l4,0l0,514l82,0l0,-688M475,762C458,762 441,764 424,768C407,771 384,777 356,785C315,798 285,804 265,804C251,804 242,801 239,794C236,787 234,772 234,751l-47,0C187,780 189,803 192,819C195,835 202,847 213,856C223,864 239,868 260,868C277,868 294,866 311,863C327,859 350,853 379,844C382,843 391,841 405,837C418,833 431,830 442,828C453,826 462,825 470,825C484,825 493,829 496,836C499,843 501,858 501,879l47,0C548,849 546,826 543,810C540,794 533,782 523,774C512,766 496,762 475,762z"
   id="glyph672" />
<glyph
   unicode="O"
   horiz-adv-x="718"
   d="M77,344C77,453 82,530 93,575C103,620 127,651 165,669C203,687 268,696 359,696C450,696 514,687 553,669C591,651 615,620 626,575C636,530 641,453 641,344C641,235 636,159 626,114C615,69 591,37 553,19C514,1 450,-8 359,-8C268,-8 203,1 165,19C127,37 103,69 93,114C82,159 77,235 77,344M555,344C555,439 551,503 544,538C537,573 521,594 497,603C473,612 427,616 359,616C291,616 245,612 221,603C196,594 180,573 173,538C166,503 162,439 162,344C162,249 166,185 173,150C180,115 196,94 221,85C245,76 291,72 359,72C427,72 473,76 497,85C521,94 537,115 544,150C551,185 555,249 555,344z"
   id="glyph674" />
<glyph
   unicode="Ó"
   horiz-adv-x="718"
   d="M77,344C77,453 82,530 93,575C103,620 127,651 165,669C203,687 268,696 359,696C450,696 514,687 553,669C591,651 615,620 626,575C636,530 641,453 641,344C641,235 636,159 626,114C615,69 591,37 553,19C514,1 450,-8 359,-8C268,-8 203,1 165,19C127,37 103,69 93,114C82,159 77,235 77,344M555,344C555,439 551,503 544,538C537,573 521,594 497,603C473,612 427,616 359,616C291,616 245,612 221,603C196,594 180,573 173,538C166,503 162,439 162,344C162,249 166,185 173,150C180,115 196,94 221,85C245,76 291,72 359,72C427,72 473,76 497,85C521,94 537,115 544,150C551,185 555,249 555,344M317,750l0,5l101,136l88,0l0,-5l-129,-136z"
   id="glyph676" />
<glyph
   unicode="Ŏ"
   horiz-adv-x="718"
   d="M77,344C77,453 82,530 93,575C103,620 127,651 165,669C203,687 268,696 359,696C450,696 514,687 553,669C591,651 615,620 626,575C636,530 641,453 641,344C641,235 636,159 626,114C615,69 591,37 553,19C514,1 450,-8 359,-8C268,-8 203,1 165,19C127,37 103,69 93,114C82,159 77,235 77,344M555,344C555,439 551,503 544,538C537,573 521,594 497,603C473,612 427,616 359,616C291,616 245,612 221,603C196,594 180,573 173,538C166,503 162,439 162,344C162,249 166,185 173,150C180,115 196,94 221,85C245,76 291,72 359,72C427,72 473,76 497,85C521,94 537,115 544,150C551,185 555,249 555,344M358,743C317,743 286,749 267,761C247,772 234,788 229,808C224,827 221,854 221,888l53,0C274,864 275,846 278,835C281,824 288,815 300,808C312,801 331,798 358,798C385,798 404,801 416,808C428,815 436,824 439,836C442,847 443,865 443,888l54,0C497,855 494,828 489,809C483,789 470,773 450,761C430,749 399,743 358,743z"
   id="glyph678" />
<glyph
   unicode="Ǒ"
   horiz-adv-x="718"
   d="M77,344C77,453 82,530 93,575C103,620 127,651 165,669C203,687 268,696 359,696C450,696 514,687 553,669C591,651 615,620 626,575C636,530 641,453 641,344C641,235 636,159 626,114C615,69 591,37 553,19C514,1 450,-8 359,-8C268,-8 203,1 165,19C127,37 103,69 93,114C82,159 77,235 77,344M555,344C555,439 551,503 544,538C537,573 521,594 497,603C473,612 427,616 359,616C291,616 245,612 221,603C196,594 180,573 173,538C166,503 162,439 162,344C162,249 166,185 173,150C180,115 196,94 221,85C245,76 291,72 359,72C427,72 473,76 497,85C521,94 537,115 544,150C551,185 555,249 555,344M316,746l-102,136l0,6l56,0l88,-96l89,96l56,0l0,-6l-102,-136z"
   id="glyph680" />
<glyph
   unicode="Ô"
   horiz-adv-x="718"
   d="M77,344C77,453 82,530 93,575C103,620 127,651 165,669C203,687 268,696 359,696C450,696 514,687 553,669C591,651 615,620 626,575C636,530 641,453 641,344C641,235 636,159 626,114C615,69 591,37 553,19C514,1 450,-8 359,-8C268,-8 203,1 165,19C127,37 103,69 93,114C82,159 77,235 77,344M555,344C555,439 551,503 544,538C537,573 521,594 497,603C473,612 427,616 359,616C291,616 245,612 221,603C196,594 180,573 173,538C166,503 162,439 162,344C162,249 166,185 173,150C180,115 196,94 221,85C245,76 291,72 359,72C427,72 473,76 497,85C521,94 537,115 544,150C551,185 555,249 555,344M214,750l0,7l102,135l85,0l102,-135l0,-7l-56,0l-89,96l-88,-96z"
   id="glyph682" />
<glyph
   unicode="Ố"
   horiz-adv-x="718"
   d="M77,344C77,453 82,530 93,575C103,620 127,651 165,669C203,687 268,696 359,696C450,696 514,687 553,669C591,651 615,620 626,575C636,530 641,453 641,344C641,235 636,159 626,114C615,69 591,37 553,19C514,1 450,-8 359,-8C268,-8 203,1 165,19C127,37 103,69 93,114C82,159 77,235 77,344M555,344C555,439 551,503 544,538C537,573 521,594 497,603C473,612 427,616 359,616C291,616 245,612 221,603C196,594 180,573 173,538C166,503 162,439 162,344C162,249 166,185 173,150C180,115 196,94 221,85C245,76 291,72 359,72C427,72 473,76 497,85C521,94 537,115 544,150C551,185 555,249 555,344M211,746l0,7l102,135l85,0l102,-135l0,-7l-56,0l-89,96l-88,-96M404,907l0,5l101,136l88,0l0,-5l-129,-136z"
   id="glyph684" />
<glyph
   unicode="Ộ"
   horiz-adv-x="718"
   d="M77,344C77,453 82,530 93,575C103,620 127,651 165,669C203,687 268,696 359,696C450,696 514,687 553,669C591,651 615,620 626,575C636,530 641,453 641,344C641,235 636,159 626,114C615,69 591,37 553,19C514,1 450,-8 359,-8C268,-8 203,1 165,19C127,37 103,69 93,114C82,159 77,235 77,344M555,344C555,439 551,503 544,538C537,573 521,594 497,603C473,612 427,616 359,616C291,616 245,612 221,603C196,594 180,573 173,538C166,503 162,439 162,344C162,249 166,185 173,150C180,115 196,94 221,85C245,76 291,72 359,72C427,72 473,76 497,85C521,94 537,115 544,150C551,185 555,249 555,344M312,-165l0,103l95,0l0,-103M214,746l0,7l102,135l85,0l102,-135l0,-7l-56,0l-89,96l-88,-96z"
   id="glyph686" />
<glyph
   unicode="Ồ"
   horiz-adv-x="718"
   d="M77,344C77,453 82,530 93,575C103,620 127,651 165,669C203,687 268,696 359,696C450,696 514,687 553,669C591,651 615,620 626,575C636,530 641,453 641,344C641,235 636,159 626,114C615,69 591,37 553,19C514,1 450,-8 359,-8C268,-8 203,1 165,19C127,37 103,69 93,114C82,159 77,235 77,344M555,344C555,439 551,503 544,538C537,573 521,594 497,603C473,612 427,616 359,616C291,616 245,612 221,603C196,594 180,573 173,538C166,503 162,439 162,344C162,249 166,185 173,150C180,115 196,94 221,85C245,76 291,72 359,72C427,72 473,76 497,85C521,94 537,115 544,150C551,185 555,249 555,344M211,746l0,7l102,135l85,0l102,-135l0,-7l-56,0l-89,96l-88,-96M443,907l-129,136l0,5l88,0l101,-136l0,-5z"
   id="glyph688" />
<glyph
   unicode="Ổ"
   horiz-adv-x="718"
   d="M77,344C77,453 82,530 93,575C103,620 127,651 165,669C203,687 268,696 359,696C450,696 514,687 553,669C591,651 615,620 626,575C636,530 641,453 641,344C641,235 636,159 626,114C615,69 591,37 553,19C514,1 450,-8 359,-8C268,-8 203,1 165,19C127,37 103,69 93,114C82,159 77,235 77,344M555,344C555,439 551,503 544,538C537,573 521,594 497,603C473,612 427,616 359,616C291,616 245,612 221,603C196,594 180,573 173,538C166,503 162,439 162,344C162,249 166,185 173,150C180,115 196,94 221,85C245,76 291,72 359,72C427,72 473,76 497,85C521,94 537,115 544,150C551,185 555,249 555,344M214,746l0,7l102,135l85,0l102,-135l0,-7l-56,0l-89,96l-88,-96M397,908C397,926 400,939 406,946C412,953 424,959 442,964l22,7C487,976 501,981 507,986C513,991 516,999 516,1011C516,1028 511,1038 501,1042C490,1046 469,1048 437,1048C404,1048 367,1046 326,1043l0,46C360,1094 399,1097 442,1097C475,1097 500,1095 518,1092C536,1088 550,1080 559,1069C568,1058 573,1041 573,1018C573,995 569,978 561,968C552,957 536,949 511,942l-24,-7C473,931 463,928 458,926C453,923 449,920 448,917C447,913 446,907 446,899l-49,0z"
   id="glyph690" />
<glyph
   unicode="Ỗ"
   horiz-adv-x="718"
   d="M77,344C77,453 82,530 93,575C103,620 127,651 165,669C203,687 268,696 359,696C450,696 514,687 553,669C591,651 615,620 626,575C636,530 641,453 641,344C641,235 636,159 626,114C615,69 591,37 553,19C514,1 450,-8 359,-8C268,-8 203,1 165,19C127,37 103,69 93,114C82,159 77,235 77,344M555,344C555,439 551,503 544,538C537,573 521,594 497,603C473,612 427,616 359,616C291,616 245,612 221,603C196,594 180,573 173,538C166,503 162,439 162,344C162,249 166,185 173,150C180,115 196,94 221,85C245,76 291,72 359,72C427,72 473,76 497,85C521,94 537,115 544,150C551,185 555,249 555,344M212,746l0,7l102,135l85,0l102,-135l0,-7l-56,0l-89,96l-88,-96M466,945C449,945 432,947 415,951C398,954 375,960 347,968C306,981 276,987 256,987C242,987 233,984 230,977C227,970 225,955 225,934l-47,0C178,963 180,986 183,1002C186,1018 193,1030 204,1039C214,1047 230,1051 251,1051C268,1051 285,1049 302,1046C318,1042 341,1036 370,1027C373,1026 382,1024 396,1020C409,1016 422,1013 433,1011C444,1009 453,1008 461,1008C475,1008 484,1012 487,1019C490,1026 492,1041 492,1062l47,0C539,1032 537,1009 534,993C531,977 524,965 514,957C503,949 487,945 466,945z"
   id="glyph692" />
<glyph
   unicode="Ȍ"
   horiz-adv-x="718"
   d="M77,344C77,453 82,530 93,575C103,620 127,651 165,669C203,687 268,696 359,696C450,696 514,687 553,669C591,651 615,620 626,575C636,530 641,453 641,344C641,235 636,159 626,114C615,69 591,37 553,19C514,1 450,-8 359,-8C268,-8 203,1 165,19C127,37 103,69 93,114C82,159 77,235 77,344M555,344C555,439 551,503 544,538C537,573 521,594 497,603C473,612 427,616 359,616C291,616 245,612 221,603C196,594 180,573 173,538C166,503 162,439 162,344C162,249 166,185 173,150C180,115 196,94 221,85C245,76 291,72 359,72C427,72 473,76 497,85C521,94 537,115 544,150C551,185 555,249 555,344M302,752l-53,0l-121,126l0,5l77,0l97,-126M494,752l-52,0l-121,126l0,5l77,0l96,-126z"
   id="glyph694" />
<glyph
   unicode="Ö"
   horiz-adv-x="718"
   d="M77,344C77,453 82,530 93,575C103,620 127,651 165,669C203,687 268,696 359,696C450,696 514,687 553,669C591,651 615,620 626,575C636,530 641,453 641,344C641,235 636,159 626,114C615,69 591,37 553,19C514,1 450,-8 359,-8C268,-8 203,1 165,19C127,37 103,69 93,114C82,159 77,235 77,344M555,344C555,439 551,503 544,538C537,573 521,594 497,603C473,612 427,616 359,616C291,616 245,612 221,603C196,594 180,573 173,538C166,503 162,439 162,344C162,249 166,185 173,150C180,115 196,94 221,85C245,76 291,72 359,72C427,72 473,76 497,85C521,94 537,115 544,150C551,185 555,249 555,344M226,775l0,83l77,0l0,-83M415,775l0,83l76,0l0,-83z"
   id="glyph696" />
<glyph
   unicode="Ọ"
   horiz-adv-x="718"
   d="M77,344C77,453 82,530 93,575C103,620 127,651 165,669C203,687 268,696 359,696C450,696 514,687 553,669C591,651 615,620 626,575C636,530 641,453 641,344C641,235 636,159 626,114C615,69 591,37 553,19C514,1 450,-8 359,-8C268,-8 203,1 165,19C127,37 103,69 93,114C82,159 77,235 77,344M555,344C555,439 551,503 544,538C537,573 521,594 497,603C473,612 427,616 359,616C291,616 245,612 221,603C196,594 180,573 173,538C166,503 162,439 162,344C162,249 166,185 173,150C180,115 196,94 221,85C245,76 291,72 359,72C427,72 473,76 497,85C521,94 537,115 544,150C551,185 555,249 555,344M312,-165l0,103l95,0l0,-103z"
   id="glyph698" />
<glyph
   unicode="Ò"
   horiz-adv-x="718"
   d="M77,344C77,453 82,530 93,575C103,620 127,651 165,669C203,687 268,696 359,696C450,696 514,687 553,669C591,651 615,620 626,575C636,530 641,453 641,344C641,235 636,159 626,114C615,69 591,37 553,19C514,1 450,-8 359,-8C268,-8 203,1 165,19C127,37 103,69 93,114C82,159 77,235 77,344M555,344C555,439 551,503 544,538C537,573 521,594 497,603C473,612 427,616 359,616C291,616 245,612 221,603C196,594 180,573 173,538C166,503 162,439 162,344C162,249 166,185 173,150C180,115 196,94 221,85C245,76 291,72 359,72C427,72 473,76 497,85C521,94 537,115 544,150C551,185 555,249 555,344M334,750l-129,136l0,5l88,0l101,-136l0,-5z"
   id="glyph700" />
<glyph
   unicode="Ỏ"
   horiz-adv-x="718"
   d="M77,344C77,453 82,530 93,575C103,620 127,651 165,669C203,687 268,696 359,696C450,696 514,687 553,669C591,651 615,620 626,575C636,530 641,453 641,344C641,235 636,159 626,114C615,69 591,37 553,19C514,1 450,-8 359,-8C268,-8 203,1 165,19C127,37 103,69 93,114C82,159 77,235 77,344M555,344C555,439 551,503 544,538C537,573 521,594 497,603C473,612 427,616 359,616C291,616 245,612 221,603C196,594 180,573 173,538C166,503 162,439 162,344C162,249 166,185 173,150C180,115 196,94 221,85C245,76 291,72 359,72C427,72 473,76 497,85C521,94 537,115 544,150C551,185 555,249 555,344M306,740C306,758 309,771 315,778C321,785 333,791 351,796l22,6C396,808 410,813 416,818C422,823 425,831 425,843C425,855 422,864 417,869C411,874 403,878 392,879C381,880 362,880 337,880C304,880 270,878 235,875l0,46C272,926 311,928 351,928C384,928 409,926 427,923C445,920 459,912 468,901C477,890 482,872 482,849C482,826 478,809 470,799C461,788 445,780 420,773l-24,-6C383,763 373,760 368,758C362,755 358,752 357,749C356,745 355,739 355,731l-49,0z"
   id="glyph702" />
<glyph
   unicode="Ơ"
   horiz-adv-x="718"
   d="M664,783l0,-24C664,732 662,712 658,697C654,682 646,670 635,663C623,655 606,650 584,648C609,626 624,593 631,550C638,507 641,438 641,344C641,235 636,159 626,114C615,69 591,37 553,19C514,1 450,-8 359,-8C268,-8 203,1 165,19C127,37 103,69 93,114C82,159 77,235 77,344C77,453 82,530 93,575C103,620 127,651 165,669C203,687 268,696 359,696C415,696 458,693 488,688l61,0C566,688 578,690 586,694C594,697 599,703 602,712C604,720 605,733 605,751l0,32M555,344C555,439 551,503 544,538C537,573 521,594 497,603C473,612 427,616 359,616C291,616 245,612 221,603C196,594 180,573 173,538C166,503 162,439 162,344C162,249 166,185 173,150C180,115 196,94 221,85C245,76 291,72 359,72C427,72 473,76 497,85C521,94 537,115 544,150C551,185 555,249 555,344z"
   id="glyph704" />
<glyph
   unicode="Ớ"
   horiz-adv-x="718"
   d="M664,783l0,-24C664,732 662,712 658,697C654,682 646,670 635,663C623,655 606,650 584,648C609,626 624,593 631,550C638,507 641,438 641,344C641,235 636,159 626,114C615,69 591,37 553,19C514,1 450,-8 359,-8C268,-8 203,1 165,19C127,37 103,69 93,114C82,159 77,235 77,344C77,453 82,530 93,575C103,620 127,651 165,669C203,687 268,696 359,696C415,696 458,693 488,688l61,0C566,688 578,690 586,694C594,697 599,703 602,712C604,720 605,733 605,751l0,32M555,344C555,439 551,503 544,538C537,573 521,594 497,603C473,612 427,616 359,616C291,616 245,612 221,603C196,594 180,573 173,538C166,503 162,439 162,344C162,249 166,185 173,150C180,115 196,94 221,85C245,76 291,72 359,72C427,72 473,76 497,85C521,94 537,115 544,150C551,185 555,249 555,344M324,747l0,5l101,136l88,0l0,-5l-129,-136z"
   id="glyph706" />
<glyph
   unicode="Ợ"
   horiz-adv-x="718"
   d="M664,783l0,-24C664,732 662,712 658,697C654,682 646,670 635,663C623,655 606,650 584,648C609,626 624,593 631,550C638,507 641,438 641,344C641,235 636,159 626,114C615,69 591,37 553,19C514,1 450,-8 359,-8C268,-8 203,1 165,19C127,37 103,69 93,114C82,159 77,235 77,344C77,453 82,530 93,575C103,620 127,651 165,669C203,687 268,696 359,696C415,696 458,693 488,688l61,0C566,688 578,690 586,694C594,697 599,703 602,712C604,720 605,733 605,751l0,32M555,344C555,439 551,503 544,538C537,573 521,594 497,603C473,612 427,616 359,616C291,616 245,612 221,603C196,594 180,573 173,538C166,503 162,439 162,344C162,249 166,185 173,150C180,115 196,94 221,85C245,76 291,72 359,72C427,72 473,76 497,85C521,94 537,115 544,150C551,185 555,249 555,344M312,-165l0,103l95,0l0,-103z"
   id="glyph708" />
<glyph
   unicode="Ờ"
   horiz-adv-x="718"
   d="M664,783l0,-24C664,732 662,712 658,697C654,682 646,670 635,663C623,655 606,650 584,648C609,626 624,593 631,550C638,507 641,438 641,344C641,235 636,159 626,114C615,69 591,37 553,19C514,1 450,-8 359,-8C268,-8 203,1 165,19C127,37 103,69 93,114C82,159 77,235 77,344C77,453 82,530 93,575C103,620 127,651 165,669C203,687 268,696 359,696C415,696 458,693 488,688l61,0C566,688 578,690 586,694C594,697 599,703 602,712C604,720 605,733 605,751l0,32M555,344C555,439 551,503 544,538C537,573 521,594 497,603C473,612 427,616 359,616C291,616 245,612 221,603C196,594 180,573 173,538C166,503 162,439 162,344C162,249 166,185 173,150C180,115 196,94 221,85C245,76 291,72 359,72C427,72 473,76 497,85C521,94 537,115 544,150C551,185 555,249 555,344M337,747l-129,136l0,5l88,0l101,-136l0,-5z"
   id="glyph710" />
<glyph
   unicode="Ở"
   horiz-adv-x="718"
   d="M664,783l0,-24C664,732 662,712 658,697C654,682 646,670 635,663C623,655 606,650 584,648C609,626 624,593 631,550C638,507 641,438 641,344C641,235 636,159 626,114C615,69 591,37 553,19C514,1 450,-8 359,-8C268,-8 203,1 165,19C127,37 103,69 93,114C82,159 77,235 77,344C77,453 82,530 93,575C103,620 127,651 165,669C203,687 268,696 359,696C415,696 458,693 488,688l61,0C566,688 578,690 586,694C594,697 599,703 602,712C604,720 605,733 605,751l0,32M555,344C555,439 551,503 544,538C537,573 521,594 497,603C473,612 427,616 359,616C291,616 245,612 221,603C196,594 180,573 173,538C166,503 162,439 162,344C162,249 166,185 173,150C180,115 196,94 221,85C245,76 291,72 359,72C427,72 473,76 497,85C521,94 537,115 544,150C551,185 555,249 555,344M306,740C306,758 309,771 315,778C321,785 333,791 351,796l22,6C396,808 410,813 416,818C422,823 425,831 425,843C425,855 422,864 417,869C411,874 403,878 392,879C381,880 362,880 337,880C304,880 270,878 235,875l0,46C272,926 311,928 351,928C384,928 409,926 427,923C445,920 459,912 468,901C477,890 482,872 482,849C482,826 478,809 470,799C461,788 445,780 420,773l-24,-6C383,763 373,760 368,758C362,755 358,752 357,749C356,745 355,739 355,731l-49,0z"
   id="glyph712" />
<glyph
   unicode="Ỡ"
   horiz-adv-x="718"
   d="M664,783l0,-24C664,732 662,712 658,697C654,682 646,670 635,663C623,655 606,650 584,648C609,626 624,593 631,550C638,507 641,438 641,344C641,235 636,159 626,114C615,69 591,37 553,19C514,1 450,-8 359,-8C268,-8 203,1 165,19C127,37 103,69 93,114C82,159 77,235 77,344C77,453 82,530 93,575C103,620 127,651 165,669C203,687 268,696 359,696C415,696 458,693 488,688l61,0C566,688 578,690 586,694C594,697 599,703 602,712C604,720 605,733 605,751l0,32M555,344C555,439 551,503 544,538C537,573 521,594 497,603C473,612 427,616 359,616C291,616 245,612 221,603C196,594 180,573 173,538C166,503 162,439 162,344C162,249 166,185 173,150C180,115 196,94 221,85C245,76 291,72 359,72C427,72 473,76 497,85C521,94 537,115 544,150C551,185 555,249 555,344M466,772C449,772 432,774 415,778C398,781 375,787 347,795C306,808 276,814 256,814C242,814 233,811 230,804C227,797 225,782 225,761l-47,0C178,790 180,813 183,829C186,845 193,857 204,866C214,874 230,878 251,878C268,878 285,876 302,873C318,869 341,863 370,854C373,853 382,851 396,847C409,843 422,840 433,838C444,836 453,835 461,835C475,835 484,839 487,846C490,853 492,868 492,889l47,0C539,859 537,836 534,820C531,804 524,792 514,784C503,776 487,772 466,772z"
   id="glyph714" />
<glyph
   unicode="Ő"
   horiz-adv-x="718"
   d="M77,344C77,453 82,530 93,575C103,620 127,651 165,669C203,687 268,696 359,696C450,696 514,687 553,669C591,651 615,620 626,575C636,530 641,453 641,344C641,235 636,159 626,114C615,69 591,37 553,19C514,1 450,-8 359,-8C268,-8 203,1 165,19C127,37 103,69 93,114C82,159 77,235 77,344M555,344C555,439 551,503 544,538C537,573 521,594 497,603C473,612 427,616 359,616C291,616 245,612 221,603C196,594 180,573 173,538C166,503 162,439 162,344C162,249 166,185 173,150C180,115 196,94 221,85C245,76 291,72 359,72C427,72 473,76 497,85C521,94 537,115 544,150C551,185 555,249 555,344M233,752l0,5l96,126l77,0l0,-5l-121,-126M425,752l0,5l97,126l77,0l0,-5l-121,-126z"
   id="glyph716" />
<glyph
   unicode="Ȏ"
   horiz-adv-x="718"
   d="M77,344C77,453 82,530 93,575C103,620 127,651 165,669C203,687 268,696 359,696C450,696 514,687 553,669C591,651 615,620 626,575C636,530 641,453 641,344C641,235 636,159 626,114C615,69 591,37 553,19C514,1 450,-8 359,-8C268,-8 203,1 165,19C127,37 103,69 93,114C82,159 77,235 77,344M555,344C555,439 551,503 544,538C537,573 521,594 497,603C473,612 427,616 359,616C291,616 245,612 221,603C196,594 180,573 173,538C166,503 162,439 162,344C162,249 166,185 173,150C180,115 196,94 221,85C245,76 291,72 359,72C427,72 473,76 497,85C521,94 537,115 544,150C551,185 555,249 555,344M360,894C401,894 432,888 452,877C471,865 484,849 489,830C494,810 497,783 497,749l-53,0C444,773 443,791 440,802C437,813 430,822 418,829C406,836 387,839 360,839C333,839 314,836 302,829C290,822 283,813 280,802C277,790 275,772 275,749l-54,0C221,782 224,809 230,829C235,848 248,864 268,876C288,888 319,894 360,894z"
   id="glyph718" />
<glyph
   unicode="Ō"
   horiz-adv-x="718"
   d="M77,344C77,453 82,530 93,575C103,620 127,651 165,669C203,687 268,696 359,696C450,696 514,687 553,669C591,651 615,620 626,575C636,530 641,453 641,344C641,235 636,159 626,114C615,69 591,37 553,19C514,1 450,-8 359,-8C268,-8 203,1 165,19C127,37 103,69 93,114C82,159 77,235 77,344M555,344C555,439 551,503 544,538C537,573 521,594 497,603C473,612 427,616 359,616C291,616 245,612 221,603C196,594 180,573 173,538C166,503 162,439 162,344C162,249 166,185 173,150C180,115 196,94 221,85C245,76 291,72 359,72C427,72 473,76 497,85C521,94 537,115 544,150C551,185 555,249 555,344M237,807l0,80l244,0l0,-80z"
   id="glyph720" />
<glyph
   unicode="Ǫ"
   horiz-adv-x="718"
   d="M401,-121C401,-83 421,-44 462,-3C438,-6 404,-8 359,-8C268,-8 203,1 165,19C127,37 103,69 93,114C82,159 77,235 77,344C77,453 82,530 93,575C103,620 127,651 165,669C203,687 268,696 359,696C450,696 514,687 553,669C591,651 615,620 626,575C636,530 641,453 641,344C641,273 640,218 637,179C634,140 626,108 615,83C604,57 586,37 562,23C537,10 516,-9 499,-32C481,-56 472,-79 472,-101C472,-112 476,-121 483,-128C490,-135 502,-139 518,-139l18,1l0,-56C512,-195 499,-196 497,-196C462,-196 438,-189 423,-175C408,-162 401,-144 401,-121M555,344C555,439 551,503 544,538C537,573 521,594 497,603C473,612 427,616 359,616C291,616 245,612 221,603C196,594 180,573 173,538C166,503 162,439 162,344C162,249 166,185 173,150C180,115 196,94 221,85C245,76 291,72 359,72C427,72 473,76 497,85C521,94 537,115 544,150C551,185 555,249 555,344z"
   id="glyph722" />
<glyph
   unicode="Ø"
   horiz-adv-x="718"
   d="M641,344C641,235 636,159 626,114C615,69 591,37 553,19C514,1 450,-8 359,-8C282,-8 226,-2 190,9l-39,-64l-74,0l57,94C109,61 94,94 87,137C80,180 77,249 77,344C77,453 82,530 93,575C103,620 127,651 165,669C203,687 268,696 359,696C436,696 492,690 527,679l39,64l75,0l-58,-94C608,627 624,594 631,550C638,506 641,437 641,344M184,120l299,487C470,611 454,614 437,615C419,616 393,616 359,616C291,616 245,612 221,603C196,594 180,573 173,538C166,503 162,439 162,344C162,279 164,230 167,197C170,164 175,138 184,120M555,344C555,409 554,458 551,491C548,524 542,550 533,568l-299,-487C247,77 264,75 283,74C302,73 327,72 359,72C427,72 473,76 497,85C521,94 537,115 544,150C551,185 555,249 555,344z"
   id="glyph724" />
<glyph
   unicode="Ǿ"
   horiz-adv-x="718"
   d="M641,344C641,235 636,159 626,114C615,69 591,37 553,19C514,1 450,-8 359,-8C282,-8 226,-2 190,9l-39,-64l-74,0l57,94C109,61 94,94 87,137C80,180 77,249 77,344C77,453 82,530 93,575C103,620 127,651 165,669C203,687 268,696 359,696C436,696 492,690 527,679l39,64l75,0l-58,-94C608,627 624,594 631,550C638,506 641,437 641,344M184,120l299,487C470,611 454,614 437,615C419,616 393,616 359,616C291,616 245,612 221,603C196,594 180,573 173,538C166,503 162,439 162,344C162,279 164,230 167,197C170,164 175,138 184,120M555,344C555,409 554,458 551,491C548,524 542,550 533,568l-299,-487C247,77 264,75 283,74C302,73 327,72 359,72C427,72 473,76 497,85C521,94 537,115 544,150C551,185 555,249 555,344M324,747l0,5l101,136l88,0l0,-5l-129,-136z"
   id="glyph726" />
<glyph
   unicode="Õ"
   horiz-adv-x="718"
   d="M77,344C77,453 82,530 93,575C103,620 127,651 165,669C203,687 268,696 359,696C450,696 514,687 553,669C591,651 615,620 626,575C636,530 641,453 641,344C641,235 636,159 626,114C615,69 591,37 553,19C514,1 450,-8 359,-8C268,-8 203,1 165,19C127,37 103,69 93,114C82,159 77,235 77,344M555,344C555,439 551,503 544,538C537,573 521,594 497,603C473,612 427,616 359,616C291,616 245,612 221,603C196,594 180,573 173,538C166,503 162,439 162,344C162,249 166,185 173,150C180,115 196,94 221,85C245,76 291,72 359,72C427,72 473,76 497,85C521,94 537,115 544,150C551,185 555,249 555,344M466,762C449,762 432,764 415,768C398,771 375,777 347,785C306,798 276,804 256,804C242,804 233,801 230,794C227,787 225,772 225,751l-47,0C178,780 180,803 183,819C186,835 193,847 204,856C214,864 230,868 251,868C268,868 285,866 302,863C318,859 341,853 370,844C373,843 382,841 396,837C409,833 422,830 433,828C444,826 453,825 461,825C475,825 484,829 487,836C490,843 492,858 492,879l47,0C539,849 537,826 534,810C531,794 524,782 514,774C503,766 487,762 466,762z"
   id="glyph728" />
<glyph
   unicode="Œ"
   horiz-adv-x="1046"
   d="M77,344C77,450 82,525 93,570C103,614 127,645 165,662C203,679 268,688 359,688l631,0l0,-80l-327,0C634,608 610,610 591,614C610,594 623,567 630,532C637,497 640,449 641,387l302,0l0,-80l-302,0C640,241 637,191 631,157C624,122 611,95 591,74C610,78 634,80 663,80l327,0l0,-80l-631,0C268,0 203,9 165,26C127,43 103,74 93,119C82,163 77,238 77,344M555,344C555,436 551,499 544,532C537,565 521,586 497,595C473,604 427,608 359,608C291,608 245,604 221,595C196,586 180,565 173,532C166,499 162,436 162,344C162,252 166,189 173,156C180,123 196,102 221,93C245,84 291,80 359,80C427,80 473,84 497,93C521,102 537,123 544,156C551,189 555,252 555,344z"
   id="glyph730" />
<glyph
   unicode="P"
   horiz-adv-x="652"
   d="M100,688l302,0C457,688 499,679 528,661C557,643 576,619 585,588C594,557 599,518 599,469C599,422 594,384 585,353C576,322 557,297 528,278C499,259 456,250 400,250l-214,0l0,-250l-86,0M371,330C414,330 446,335 466,344C486,353 499,366 505,385C511,404 514,432 514,469C514,506 511,534 506,553C500,572 487,586 468,595C448,604 416,608 373,608l-187,0l0,-278z"
   id="glyph732" />
<glyph
   unicode="Þ"
   horiz-adv-x="652"
   d="M100,688l86,0l0,-119l216,0C457,569 499,560 528,542C557,524 576,500 585,469C594,438 599,399 599,351C599,304 594,266 585,235C576,204 557,179 528,160C499,141 456,132 400,132l-214,0l0,-132l-86,0M371,212C414,212 446,217 466,226C486,235 499,248 505,267C511,286 514,314 514,351C514,388 511,416 506,435C500,453 487,467 468,476C448,485 416,489 373,489l-187,0l0,-277z"
   id="glyph734" />
<glyph
   unicode="Q"
   horiz-adv-x="718"
   d="M659,-113l0,-2l-98,0l-82,114C448,-6 408,-8 359,-8C268,-8 203,1 165,19C127,37 103,69 93,114C82,159 77,235 77,344C77,453 82,530 93,575C103,620 127,651 165,669C203,687 268,696 359,696C450,696 514,687 553,669C591,651 615,620 626,575C636,530 641,453 641,344C641,273 639,217 636,178C633,139 625,106 614,81C602,55 584,35 559,22M426,72l-105,146l92,0l96,-130C522,97 532,110 539,129C546,148 550,173 552,206C554,238 555,284 555,344C555,439 551,503 544,538C537,573 521,594 497,603C473,612 427,616 359,616C291,616 245,612 221,603C196,594 180,573 173,538C166,503 162,439 162,344C162,249 166,185 173,150C180,115 196,94 221,85C245,76 291,72 359,72z"
   id="glyph736" />
<glyph
   unicode="R"
   horiz-adv-x="682"
   d="M526,0l-107,270l-17,0l-216,0l0,-270l-86,0l0,688l316,0C471,688 512,679 540,662C568,645 586,621 595,592C604,563 608,525 608,479C608,432 601,391 587,356C573,321 544,297 501,284l117,-284M522,479C522,513 519,539 514,556C509,573 497,586 478,595C459,604 428,608 387,608l-201,0l0,-258l194,0C423,350 454,355 475,364C495,373 508,386 514,403C519,420 522,446 522,479z"
   id="glyph738" />
<glyph
   unicode="Ŕ"
   horiz-adv-x="682"
   d="M526,0l-107,270l-17,0l-216,0l0,-270l-86,0l0,688l316,0C471,688 512,679 540,662C568,645 586,621 595,592C604,563 608,525 608,479C608,432 601,391 587,356C573,321 544,297 501,284l117,-284M522,479C522,513 519,539 514,556C509,573 497,586 478,595C459,604 428,608 387,608l-201,0l0,-258l194,0C423,350 454,355 475,364C495,373 508,386 514,403C519,420 522,446 522,479M306,747l0,5l101,136l88,0l0,-5l-129,-136z"
   id="glyph740" />
<glyph
   unicode="Ř"
   horiz-adv-x="682"
   d="M526,0l-107,270l-17,0l-216,0l0,-270l-86,0l0,688l316,0C471,688 512,679 540,662C568,645 586,621 595,592C604,563 608,525 608,479C608,432 601,391 587,356C573,321 544,297 501,284l117,-284M522,479C522,513 519,539 514,556C509,573 497,586 478,595C459,604 428,608 387,608l-201,0l0,-258l194,0C423,350 454,355 475,364C495,373 508,386 514,403C519,420 522,446 522,479M298,746l-102,136l0,6l56,0l88,-96l89,96l56,0l0,-6l-102,-136z"
   id="glyph742" />
<glyph
   unicode="Ŗ"
   horiz-adv-x="682"
   d="M526,0l-107,270l-17,0l-216,0l0,-270l-86,0l0,688l316,0C471,688 512,679 540,662C568,645 586,621 595,592C604,563 608,525 608,479C608,432 601,391 587,356C573,321 544,297 501,284l117,-284M522,479C522,513 519,539 514,556C509,573 497,586 478,595C459,604 428,608 387,608l-201,0l0,-258l194,0C423,350 454,355 475,364C495,373 508,386 514,403C519,420 522,446 522,479M342,-178l0,17l-37,0l0,99l91,0l0,-81C396,-178 393,-204 388,-221C383,-238 372,-249 357,-256C342,-263 317,-266 284,-266l0,40C308,-226 324,-223 331,-216C338,-210 342,-197 342,-178z"
   id="glyph744" />
<glyph
   unicode="Ȑ"
   horiz-adv-x="682"
   d="M526,0l-107,270l-17,0l-216,0l0,-270l-86,0l0,688l316,0C471,688 512,679 540,662C568,645 586,621 595,592C604,563 608,525 608,479C608,432 601,391 587,356C573,321 544,297 501,284l117,-284M522,479C522,513 519,539 514,556C509,573 497,586 478,595C459,604 428,608 387,608l-201,0l0,-258l194,0C423,350 454,355 475,364C495,373 508,386 514,403C519,420 522,446 522,479M284,752l-53,0l-121,126l0,5l77,0l97,-126M476,752l-52,0l-121,126l0,5l77,0l96,-126z"
   id="glyph746" />
<glyph
   unicode="Ṛ"
   horiz-adv-x="682"
   d="M526,0l-107,270l-17,0l-216,0l0,-270l-86,0l0,688l316,0C471,688 512,679 540,662C568,645 586,621 595,592C604,563 608,525 608,479C608,432 601,391 587,356C573,321 544,297 501,284l117,-284M522,479C522,513 519,539 514,556C509,573 497,586 478,595C459,604 428,608 387,608l-201,0l0,-258l194,0C423,350 454,355 475,364C495,373 508,386 514,403C519,420 522,446 522,479M294,-165l0,103l95,0l0,-103z"
   id="glyph748" />
<glyph
   unicode="Ȓ"
   horiz-adv-x="682"
   d="M526,0l-107,270l-17,0l-216,0l0,-270l-86,0l0,688l316,0C471,688 512,679 540,662C568,645 586,621 595,592C604,563 608,525 608,479C608,432 601,391 587,356C573,321 544,297 501,284l117,-284M522,479C522,513 519,539 514,556C509,573 497,586 478,595C459,604 428,608 387,608l-201,0l0,-258l194,0C423,350 454,355 475,364C495,373 508,386 514,403C519,420 522,446 522,479M342,894C383,894 414,888 434,877C453,865 466,849 471,830C476,810 479,783 479,749l-53,0C426,773 425,791 422,802C419,813 412,822 400,829C388,836 369,839 342,839C315,839 296,836 284,829C272,822 265,813 262,802C259,790 257,772 257,749l-54,0C203,782 206,809 212,829C217,848 230,864 250,876C270,888 301,894 342,894z"
   id="glyph750" />
<glyph
   unicode="S"
   horiz-adv-x="629"
   d="M87,6l0,79C174,76 246,72 304,72C340,72 369,74 390,77C411,80 428,85 443,93C456,101 465,113 469,129C473,144 475,165 475,191C475,222 473,245 470,258C467,271 459,280 447,286C434,292 413,296 383,299l-170,19C172,323 141,333 120,348C99,363 85,382 78,407C71,431 67,463 67,502C67,557 77,598 96,626C115,654 141,673 176,682C210,691 256,696 314,696C353,696 392,694 432,691C472,688 504,684 527,679l0,-76C502,607 470,610 433,613C396,615 361,616 329,616C292,616 262,614 239,611C216,608 199,602 186,594C172,586 163,575 159,562C155,549 153,530 153,505C153,478 155,458 159,446C163,433 171,424 182,419C193,413 212,409 238,406l168,-19C446,383 477,376 499,366C521,356 537,338 547,312C556,288 561,250 561,197C561,136 552,91 533,62C514,32 489,13 458,5C427,-4 384,-8 329,-8C292,-8 252,-7 207,-4C162,-1 122,2 87,6z"
   id="glyph752" />
<glyph
   unicode="Ś"
   horiz-adv-x="629"
   d="M87,6l0,79C174,76 246,72 304,72C340,72 369,74 390,77C411,80 428,85 443,93C456,101 465,113 469,129C473,144 475,165 475,191C475,222 473,245 470,258C467,271 459,280 447,286C434,292 413,296 383,299l-170,19C172,323 141,333 120,348C99,363 85,382 78,407C71,431 67,463 67,502C67,557 77,598 96,626C115,654 141,673 176,682C210,691 256,696 314,696C353,696 392,694 432,691C472,688 504,684 527,679l0,-76C502,607 470,610 433,613C396,615 361,616 329,616C292,616 262,614 239,611C216,608 199,602 186,594C172,586 163,575 159,562C155,549 153,530 153,505C153,478 155,458 159,446C163,433 171,424 182,419C193,413 212,409 238,406l168,-19C446,383 477,376 499,366C521,356 537,338 547,312C556,288 561,250 561,197C561,136 552,91 533,62C514,32 489,13 458,5C427,-4 384,-8 329,-8C292,-8 252,-7 207,-4C162,-1 122,2 87,6M280,747l0,5l101,136l88,0l0,-5l-129,-136z"
   id="glyph754" />
<glyph
   unicode="Ꞌ"
   horiz-adv-x="145"
   d="M33,282l0,406l79,0l0,-178l-23,-228z"
   id="glyph756" />
<glyph
   unicode="Š"
   horiz-adv-x="629"
   d="M87,6l0,79C174,76 246,72 304,72C340,72 369,74 390,77C411,80 428,85 443,93C456,101 465,113 469,129C473,144 475,165 475,191C475,222 473,245 470,258C467,271 459,280 447,286C434,292 413,296 383,299l-170,19C172,323 141,333 120,348C99,363 85,382 78,407C71,431 67,463 67,502C67,557 77,598 96,626C115,654 141,673 176,682C210,691 256,696 314,696C353,696 392,694 432,691C472,688 504,684 527,679l0,-76C502,607 470,610 433,613C396,615 361,616 329,616C292,616 262,614 239,611C216,608 199,602 186,594C172,586 163,575 159,562C155,549 153,530 153,505C153,478 155,458 159,446C163,433 171,424 182,419C193,413 212,409 238,406l168,-19C446,383 477,376 499,366C521,356 537,338 547,312C556,288 561,250 561,197C561,136 552,91 533,62C514,32 489,13 458,5C427,-4 384,-8 329,-8C292,-8 252,-7 207,-4C162,-1 122,2 87,6M280,750l-102,136l0,6l56,0l88,-96l89,96l56,0l0,-6l-102,-136z"
   id="glyph758" />
<glyph
   unicode="Ş"
   horiz-adv-x="629"
   d="M342,-8l-38,-182l-81,0l0,5l60,178C224,-6 158,-2 87,6l0,79C174,76 246,72 304,72C340,72 369,74 390,77C411,80 428,85 443,93C456,101 465,113 469,129C473,144 475,165 475,191C475,222 473,245 470,258C467,271 459,280 447,286C434,292 413,296 383,299l-170,19C172,323 141,333 120,348C99,363 85,382 78,407C71,431 67,463 67,502C67,557 77,598 96,626C115,654 141,673 176,682C210,691 256,696 314,696C353,696 392,694 432,691C472,688 504,684 527,679l0,-76C502,607 470,610 433,613C396,615 361,616 329,616C292,616 262,614 239,611C216,608 199,602 186,594C172,586 163,575 159,562C155,549 153,530 153,505C153,478 155,458 159,446C163,433 171,424 182,419C193,413 212,409 238,406l168,-19C446,383 477,376 499,366C521,356 537,338 547,312C556,288 561,250 561,197C561,138 552,93 535,64C518,35 494,16 464,7C433,-2 393,-7 342,-8z"
   id="glyph760" />
<glyph
   unicode="Ŝ"
   horiz-adv-x="629"
   d="M87,6l0,79C174,76 246,72 304,72C340,72 369,74 390,77C411,80 428,85 443,93C456,101 465,113 469,129C473,144 475,165 475,191C475,222 473,245 470,258C467,271 459,280 447,286C434,292 413,296 383,299l-170,19C172,323 141,333 120,348C99,363 85,382 78,407C71,431 67,463 67,502C67,557 77,598 96,626C115,654 141,673 176,682C210,691 256,696 314,696C353,696 392,694 432,691C472,688 504,684 527,679l0,-76C502,607 470,610 433,613C396,615 361,616 329,616C292,616 262,614 239,611C216,608 199,602 186,594C172,586 163,575 159,562C155,549 153,530 153,505C153,478 155,458 159,446C163,433 171,424 182,419C193,413 212,409 238,406l168,-19C446,383 477,376 499,366C521,356 537,338 547,312C556,288 561,250 561,197C561,136 552,91 533,62C514,32 489,13 458,5C427,-4 384,-8 329,-8C292,-8 252,-7 207,-4C162,-1 122,2 87,6M170,746l0,7l102,135l85,0l102,-135l0,-7l-56,0l-89,96l-88,-96z"
   id="glyph762" />
<glyph
   unicode="Ș"
   horiz-adv-x="629"
   d="M87,6l0,79C174,76 246,72 304,72C340,72 369,74 390,77C411,80 428,85 443,93C456,101 465,113 469,129C473,144 475,165 475,191C475,222 473,245 470,258C467,271 459,280 447,286C434,292 413,296 383,299l-170,19C172,323 141,333 120,348C99,363 85,382 78,407C71,431 67,463 67,502C67,557 77,598 96,626C115,654 141,673 176,682C210,691 256,696 314,696C353,696 392,694 432,691C472,688 504,684 527,679l0,-76C502,607 470,610 433,613C396,615 361,616 329,616C292,616 262,614 239,611C216,608 199,602 186,594C172,586 163,575 159,562C155,549 153,530 153,505C153,478 155,458 159,446C163,433 171,424 182,419C193,413 212,409 238,406l168,-19C446,383 477,376 499,366C521,356 537,338 547,312C556,288 561,250 561,197C561,136 552,91 533,62C514,32 489,13 458,5C427,-4 384,-8 329,-8C292,-8 252,-7 207,-4C162,-1 122,2 87,6M316,-178l0,17l-37,0l0,99l91,0l0,-81C370,-178 367,-204 362,-221C357,-238 346,-249 331,-256C316,-263 291,-266 258,-266l0,40C282,-226 298,-223 305,-216C312,-210 316,-197 316,-178z"
   id="glyph764" />
<glyph
   unicode="Ṣ"
   horiz-adv-x="629"
   d="M87,6l0,79C174,76 246,72 304,72C340,72 369,74 390,77C411,80 428,85 443,93C456,101 465,113 469,129C473,144 475,165 475,191C475,222 473,245 470,258C467,271 459,280 447,286C434,292 413,296 383,299l-170,19C172,323 141,333 120,348C99,363 85,382 78,407C71,431 67,463 67,502C67,557 77,598 96,626C115,654 141,673 176,682C210,691 256,696 314,696C353,696 392,694 432,691C472,688 504,684 527,679l0,-76C502,607 470,610 433,613C396,615 361,616 329,616C292,616 262,614 239,611C216,608 199,602 186,594C172,586 163,575 159,562C155,549 153,530 153,505C153,478 155,458 159,446C163,433 171,424 182,419C193,413 212,409 238,406l168,-19C446,383 477,376 499,366C521,356 537,338 547,312C556,288 561,250 561,197C561,136 552,91 533,62C514,32 489,13 458,5C427,-4 384,-8 329,-8C292,-8 252,-7 207,-4C162,-1 122,2 87,6M268,-165l0,103l95,0l0,-103z"
   id="glyph766" />
<glyph
   unicode="ẞ"
   horiz-adv-x="716"
   d="M644,182C644,116 626,68 590,38C554,7 495,-8 414,-8C391,-8 366,-6 337,-3C308,0 284,5 264,10l0,74C319,76 367,72 409,72C448,72 479,76 500,83C521,90 535,101 544,118C553,135 557,158 557,189C557,233 548,264 531,282C513,299 482,308 438,308l-112,0l0,66l179,226C460,611 413,616 364,616C303,616 261,610 237,599C212,587 196,563 189,528C181,492 177,430 177,342l0,-342l-85,0l0,342C92,443 99,518 112,567C125,616 150,649 185,668C220,687 273,696 344,696C390,696 436,693 482,686C527,679 566,670 598,659l0,-69l-170,-215l21,0C518,375 568,361 599,332C629,303 644,253 644,182z"
   id="glyph768" />
<glyph
   unicode="Ə"
   horiz-adv-x="698"
   d="M621,344C621,235 616,159 606,114C596,69 573,37 536,19C499,1 436,-8 348,-8C260,-8 198,1 161,19C124,37 101,69 92,114C82,159 77,235 77,344l0,43l458,0C534,460 529,511 519,542C508,573 489,593 460,602C431,611 381,616 312,616C287,616 260,615 231,612C202,609 176,606 155,602l0,77C178,684 207,688 241,691C274,694 305,696 334,696C420,696 483,687 522,669C561,651 587,618 601,571C614,523 621,447 621,344M535,307l-373,0C163,226 167,171 175,141C183,110 198,91 221,84C244,76 286,72 348,72C411,72 454,76 477,84C500,91 515,110 523,141C530,171 534,226 535,307z"
   id="glyph770" />
<glyph
   unicode="T"
   horiz-adv-x="582"
   d="M248,0l0,605l-218,0l0,83l521,0l0,-83l-217,0l0,-605z"
   id="glyph772" />
<glyph
   unicode="Ŧ"
   horiz-adv-x="582"
   d="M551,605l-217,0l0,-230l192,0l0,-73l-192,0l0,-302l-86,0l0,302l-193,0l0,73l193,0l0,230l-218,0l0,83l521,0z"
   id="glyph774" />
<glyph
   unicode="Ť"
   horiz-adv-x="582"
   d="M248,0l0,605l-218,0l0,83l521,0l0,-83l-217,0l0,-605M248,746l-102,136l0,6l56,0l88,-96l89,96l56,0l0,-6l-102,-136z"
   id="glyph776" />
<glyph
   unicode="Ţ"
   horiz-adv-x="582"
   d="M30,688l521,0l0,-83l-217,0l0,-605l-15,0l-39,-190l-81,0l0,5l62,185l-13,0l0,605l-218,0z"
   id="glyph778" />
<glyph
   unicode="Ț"
   horiz-adv-x="582"
   d="M248,0l0,605l-218,0l0,83l521,0l0,-83l-217,0l0,-605M292,-178l0,17l-37,0l0,99l91,0l0,-81C346,-178 343,-204 338,-221C333,-238 322,-249 307,-256C292,-263 267,-266 234,-266l0,40C258,-226 274,-223 281,-216C288,-210 292,-197 292,-178z"
   id="glyph780" />
<glyph
   unicode="Ṭ"
   horiz-adv-x="582"
   d="M248,0l0,605l-218,0l0,83l521,0l0,-83l-217,0l0,-605M244,-165l0,103l95,0l0,-103z"
   id="glyph782" />
<glyph
   unicode="U"
   horiz-adv-x="709"
   d="M617,688l0,-387C617,212 611,146 600,105C589,63 565,34 529,17C493,0 435,-8 355,-8C275,-8 217,1 181,18C145,35 121,64 110,105C98,146 92,212 92,301l0,387l85,0l0,-420C177,208 180,165 187,140C194,115 209,97 233,87C257,77 298,72 355,72C412,72 453,77 477,87C500,97 515,115 522,140C528,165 531,207 531,268l0,420z"
   id="glyph784" />
<glyph
   unicode="Ú"
   horiz-adv-x="709"
   d="M617,688l0,-387C617,212 611,146 600,105C589,63 565,34 529,17C493,0 435,-8 355,-8C275,-8 217,1 181,18C145,35 121,64 110,105C98,146 92,212 92,301l0,387l85,0l0,-420C177,208 180,165 187,140C194,115 209,97 233,87C257,77 298,72 355,72C412,72 453,77 477,87C500,97 515,115 522,140C528,165 531,207 531,268l0,420M317,750l0,5l101,136l88,0l0,-5l-129,-136z"
   id="glyph786" />
<glyph
   unicode="Ŭ"
   horiz-adv-x="709"
   d="M617,688l0,-387C617,212 611,146 600,105C589,63 565,34 529,17C493,0 435,-8 355,-8C275,-8 217,1 181,18C145,35 121,64 110,105C98,146 92,212 92,301l0,387l85,0l0,-420C177,208 180,165 187,140C194,115 209,97 233,87C257,77 298,72 355,72C412,72 453,77 477,87C500,97 515,115 522,140C528,165 531,207 531,268l0,420M354,743C313,743 282,749 263,761C243,772 230,788 225,808C220,827 217,854 217,888l53,0C270,864 271,846 274,835C277,824 284,815 296,808C308,801 327,798 354,798C381,798 400,801 412,808C424,815 432,824 435,836C438,847 439,865 439,888l54,0C493,855 490,828 485,809C479,789 466,773 446,761C426,749 395,743 354,743z"
   id="glyph788" />
<glyph
   unicode="Ǔ"
   horiz-adv-x="709"
   d="M617,688l0,-387C617,212 611,146 600,105C589,63 565,34 529,17C493,0 435,-8 355,-8C275,-8 217,1 181,18C145,35 121,64 110,105C98,146 92,212 92,301l0,387l85,0l0,-420C177,208 180,165 187,140C194,115 209,97 233,87C257,77 298,72 355,72C412,72 453,77 477,87C500,97 515,115 522,140C528,165 531,207 531,268l0,420M312,746l-102,136l0,6l56,0l88,-96l89,96l56,0l0,-6l-102,-136z"
   id="glyph790" />
<glyph
   unicode="Û"
   horiz-adv-x="709"
   d="M617,688l0,-387C617,212 611,146 600,105C589,63 565,34 529,17C493,0 435,-8 355,-8C275,-8 217,1 181,18C145,35 121,64 110,105C98,146 92,212 92,301l0,387l85,0l0,-420C177,208 180,165 187,140C194,115 209,97 233,87C257,77 298,72 355,72C412,72 453,77 477,87C500,97 515,115 522,140C528,165 531,207 531,268l0,420M212,750l0,7l102,135l85,0l102,-135l0,-7l-56,0l-89,96l-88,-96z"
   id="glyph792" />
<glyph
   unicode="Ȕ"
   horiz-adv-x="709"
   d="M617,688l0,-387C617,212 611,146 600,105C589,63 565,34 529,17C493,0 435,-8 355,-8C275,-8 217,1 181,18C145,35 121,64 110,105C98,146 92,212 92,301l0,387l85,0l0,-420C177,208 180,165 187,140C194,115 209,97 233,87C257,77 298,72 355,72C412,72 453,77 477,87C500,97 515,115 522,140C528,165 531,207 531,268l0,420M298,752l-53,0l-121,126l0,5l77,0l97,-126M490,752l-52,0l-121,126l0,5l77,0l96,-126z"
   id="glyph794" />
<glyph
   unicode="Ü"
   horiz-adv-x="709"
   d="M617,688l0,-387C617,212 611,146 600,105C589,63 565,34 529,17C493,0 435,-8 355,-8C275,-8 217,1 181,18C145,35 121,64 110,105C98,146 92,212 92,301l0,387l85,0l0,-420C177,208 180,165 187,140C194,115 209,97 233,87C257,77 298,72 355,72C412,72 453,77 477,87C500,97 515,115 522,140C528,165 531,207 531,268l0,420M222,775l0,83l77,0l0,-83M411,775l0,83l76,0l0,-83z"
   id="glyph796" />
<glyph
   unicode="Ǘ"
   horiz-adv-x="709"
   d="M617,688l0,-387C617,212 611,146 600,105C589,63 565,34 529,17C493,0 435,-8 355,-8C275,-8 217,1 181,18C145,35 121,64 110,105C98,146 92,212 92,301l0,387l85,0l0,-420C177,208 180,165 187,140C194,115 209,97 233,87C257,77 298,72 355,72C412,72 453,77 477,87C500,97 515,115 522,140C528,165 531,207 531,268l0,420M222,792l0,83l77,0l0,-83M411,792l0,83l76,0l0,-83M322,874l0,5l101,136l88,0l0,-5l-129,-136z"
   id="glyph798" />
<glyph
   unicode="Ǚ"
   horiz-adv-x="709"
   d="M617,688l0,-387C617,212 611,146 600,105C589,63 565,34 529,17C493,0 435,-8 355,-8C275,-8 217,1 181,18C145,35 121,64 110,105C98,146 92,212 92,301l0,387l85,0l0,-420C177,208 180,165 187,140C194,115 209,97 233,87C257,77 298,72 355,72C412,72 453,77 477,87C500,97 515,115 522,140C528,165 531,207 531,268l0,420M222,792l0,83l77,0l0,-83M411,792l0,83l76,0l0,-83M314,873l-102,136l0,6l56,0l88,-96l89,96l56,0l0,-6l-102,-136z"
   id="glyph800" />
<glyph
   unicode="Ǜ"
   horiz-adv-x="709"
   d="M617,688l0,-387C617,212 611,146 600,105C589,63 565,34 529,17C493,0 435,-8 355,-8C275,-8 217,1 181,18C145,35 121,64 110,105C98,146 92,212 92,301l0,387l85,0l0,-420C177,208 180,165 187,140C194,115 209,97 233,87C257,77 298,72 355,72C412,72 453,77 477,87C500,97 515,115 522,140C528,165 531,207 531,268l0,420M222,792l0,83l77,0l0,-83M411,792l0,83l76,0l0,-83M335,874l-129,136l0,5l88,0l101,-136l0,-5z"
   id="glyph802" />
<glyph
   unicode="Ǖ"
   horiz-adv-x="709"
   d="M617,688l0,-387C617,212 611,146 600,105C589,63 565,34 529,17C493,0 435,-8 355,-8C275,-8 217,1 181,18C145,35 121,64 110,105C98,146 92,212 92,301l0,387l85,0l0,-420C177,208 180,165 187,140C194,115 209,97 233,87C257,77 298,72 355,72C412,72 453,77 477,87C500,97 515,115 522,140C528,165 531,207 531,268l0,420M222,792l0,83l77,0l0,-83M411,792l0,83l76,0l0,-83M235,934l0,80l244,0l0,-80z"
   id="glyph804" />
<glyph
   unicode="Ụ"
   horiz-adv-x="709"
   d="M617,688l0,-387C617,212 611,146 600,105C589,63 565,34 529,17C493,0 435,-8 355,-8C275,-8 217,1 181,18C145,35 121,64 110,105C98,146 92,212 92,301l0,387l85,0l0,-420C177,208 180,165 187,140C194,115 209,97 233,87C257,77 298,72 355,72C412,72 453,77 477,87C500,97 515,115 522,140C528,165 531,207 531,268l0,420M308,-165l0,103l95,0l0,-103z"
   id="glyph806" />
<glyph
   unicode="Ù"
   horiz-adv-x="709"
   d="M617,688l0,-387C617,212 611,146 600,105C589,63 565,34 529,17C493,0 435,-8 355,-8C275,-8 217,1 181,18C145,35 121,64 110,105C98,146 92,212 92,301l0,387l85,0l0,-420C177,208 180,165 187,140C194,115 209,97 233,87C257,77 298,72 355,72C412,72 453,77 477,87C500,97 515,115 522,140C528,165 531,207 531,268l0,420M349,750l-129,136l0,5l88,0l101,-136l0,-5z"
   id="glyph808" />
<glyph
   unicode="Ủ"
   horiz-adv-x="709"
   d="M617,688l0,-387C617,212 611,146 600,105C589,63 565,34 529,17C493,0 435,-8 355,-8C275,-8 217,1 181,18C145,35 121,64 110,105C98,146 92,212 92,301l0,387l85,0l0,-420C177,208 180,165 187,140C194,115 209,97 233,87C257,77 298,72 355,72C412,72 453,77 477,87C500,97 515,115 522,140C528,165 531,207 531,268l0,420M302,740C302,758 305,771 311,778C317,785 329,791 347,796l22,6C392,808 406,813 412,818C418,823 421,831 421,843C421,855 418,864 413,869C407,874 399,878 388,879C377,880 358,880 333,880C300,880 266,878 231,875l0,46C268,926 307,928 347,928C380,928 405,926 423,923C441,920 455,912 464,901C473,890 478,872 478,849C478,826 474,809 466,799C457,788 441,780 416,773l-24,-6C379,763 369,760 364,758C358,755 354,752 353,749C352,745 351,739 351,731l-49,0z"
   id="glyph810" />
<glyph
   unicode="Ư"
   horiz-adv-x="709"
   d="M723,783l0,-24C723,729 720,706 715,691C710,676 700,665 685,658C670,651 647,648 617,647l0,-346C617,212 611,146 600,105C589,63 565,34 529,17C493,0 435,-8 355,-8C275,-8 217,1 181,18C145,35 121,64 110,105C98,146 92,212 92,301l0,387l85,0l0,-420C177,208 180,165 187,140C194,115 209,97 233,87C257,77 298,72 355,72C412,72 453,77 477,87C500,97 515,115 522,140C528,165 531,207 531,268l0,420l77,0C625,688 637,690 645,694C653,697 658,703 661,712C663,720 664,733 664,751l0,32z"
   id="glyph812" />
<glyph
   unicode="Ứ"
   horiz-adv-x="709"
   d="M723,783l0,-24C723,729 720,706 715,691C710,676 700,665 685,658C670,651 647,648 617,647l0,-346C617,212 611,146 600,105C589,63 565,34 529,17C493,0 435,-8 355,-8C275,-8 217,1 181,18C145,35 121,64 110,105C98,146 92,212 92,301l0,387l85,0l0,-420C177,208 180,165 187,140C194,115 209,97 233,87C257,77 298,72 355,72C412,72 453,77 477,87C500,97 515,115 522,140C528,165 531,207 531,268l0,420l77,0C625,688 637,690 645,694C653,697 658,703 661,712C663,720 664,733 664,751l0,32M320,747l0,5l101,136l88,0l0,-5l-129,-136z"
   id="glyph814" />
<glyph
   unicode="Ự"
   horiz-adv-x="709"
   d="M723,783l0,-24C723,729 720,706 715,691C710,676 700,665 685,658C670,651 647,648 617,647l0,-346C617,212 611,146 600,105C589,63 565,34 529,17C493,0 435,-8 355,-8C275,-8 217,1 181,18C145,35 121,64 110,105C98,146 92,212 92,301l0,387l85,0l0,-420C177,208 180,165 187,140C194,115 209,97 233,87C257,77 298,72 355,72C412,72 453,77 477,87C500,97 515,115 522,140C528,165 531,207 531,268l0,420l77,0C625,688 637,690 645,694C653,697 658,703 661,712C663,720 664,733 664,751l0,32M308,-165l0,103l95,0l0,-103z"
   id="glyph816" />
<glyph
   unicode="Ừ"
   horiz-adv-x="709"
   d="M723,783l0,-24C723,729 720,706 715,691C710,676 700,665 685,658C670,651 647,648 617,647l0,-346C617,212 611,146 600,105C589,63 565,34 529,17C493,0 435,-8 355,-8C275,-8 217,1 181,18C145,35 121,64 110,105C98,146 92,212 92,301l0,387l85,0l0,-420C177,208 180,165 187,140C194,115 209,97 233,87C257,77 298,72 355,72C412,72 453,77 477,87C500,97 515,115 522,140C528,165 531,207 531,268l0,420l77,0C625,688 637,690 645,694C653,697 658,703 661,712C663,720 664,733 664,751l0,32M333,747l-129,136l0,5l88,0l101,-136l0,-5z"
   id="glyph818" />
<glyph
   unicode="Ử"
   horiz-adv-x="709"
   d="M723,783l0,-24C723,729 720,706 715,691C710,676 700,665 685,658C670,651 647,648 617,647l0,-346C617,212 611,146 600,105C589,63 565,34 529,17C493,0 435,-8 355,-8C275,-8 217,1 181,18C145,35 121,64 110,105C98,146 92,212 92,301l0,387l85,0l0,-420C177,208 180,165 187,140C194,115 209,97 233,87C257,77 298,72 355,72C412,72 453,77 477,87C500,97 515,115 522,140C528,165 531,207 531,268l0,420l77,0C625,688 637,690 645,694C653,697 658,703 661,712C663,720 664,733 664,751l0,32M302,740C302,758 305,771 311,778C317,785 329,791 347,796l22,6C392,808 406,813 412,818C418,823 421,831 421,843C421,855 418,864 413,869C407,874 399,878 388,879C377,880 358,880 333,880C300,880 266,878 231,875l0,46C268,926 307,928 347,928C380,928 405,926 423,923C441,920 455,912 464,901C473,890 478,872 478,849C478,826 474,809 466,799C457,788 441,780 416,773l-24,-6C379,763 369,760 364,758C358,755 354,752 353,749C352,745 351,739 351,731l-49,0z"
   id="glyph820" />
<glyph
   unicode="Ữ"
   horiz-adv-x="709"
   d="M723,783l0,-24C723,729 720,706 715,691C710,676 700,665 685,658C670,651 647,648 617,647l0,-346C617,212 611,146 600,105C589,63 565,34 529,17C493,0 435,-8 355,-8C275,-8 217,1 181,18C145,35 121,64 110,105C98,146 92,212 92,301l0,387l85,0l0,-420C177,208 180,165 187,140C194,115 209,97 233,87C257,77 298,72 355,72C412,72 453,77 477,87C500,97 515,115 522,140C528,165 531,207 531,268l0,420l77,0C625,688 637,690 645,694C653,697 658,703 661,712C663,720 664,733 664,751l0,32M462,772C445,772 428,774 411,778C394,781 371,787 343,795C302,808 272,814 252,814C238,814 229,811 226,804C223,797 221,782 221,761l-47,0C174,790 176,813 179,829C182,845 189,857 200,866C210,874 226,878 247,878C264,878 281,876 298,873C314,869 337,863 366,854C369,853 378,851 392,847C405,843 418,840 429,838C440,836 449,835 457,835C471,835 480,839 483,846C486,853 488,868 488,889l47,0C535,859 533,836 530,820C527,804 520,792 510,784C499,776 483,772 462,772z"
   id="glyph822" />
<glyph
   unicode="Ű"
   horiz-adv-x="709"
   d="M617,688l0,-387C617,212 611,146 600,105C589,63 565,34 529,17C493,0 435,-8 355,-8C275,-8 217,1 181,18C145,35 121,64 110,105C98,146 92,212 92,301l0,387l85,0l0,-420C177,208 180,165 187,140C194,115 209,97 233,87C257,77 298,72 355,72C412,72 453,77 477,87C500,97 515,115 522,140C528,165 531,207 531,268l0,420M229,752l0,5l96,126l77,0l0,-5l-121,-126M421,752l0,5l97,126l77,0l0,-5l-121,-126z"
   id="glyph824" />
<glyph
   unicode="Ȗ"
   horiz-adv-x="709"
   d="M617,688l0,-387C617,212 611,146 600,105C589,63 565,34 529,17C493,0 435,-8 355,-8C275,-8 217,1 181,18C145,35 121,64 110,105C98,146 92,212 92,301l0,387l85,0l0,-420C177,208 180,165 187,140C194,115 209,97 233,87C257,77 298,72 355,72C412,72 453,77 477,87C500,97 515,115 522,140C528,165 531,207 531,268l0,420M356,894C397,894 428,888 448,877C467,865 480,849 485,830C490,810 493,783 493,749l-53,0C440,773 439,791 436,802C433,813 426,822 414,829C402,836 383,839 356,839C329,839 310,836 298,829C286,822 279,813 276,802C273,790 271,772 271,749l-54,0C217,782 220,809 226,829C231,848 244,864 264,876C284,888 315,894 356,894z"
   id="glyph826" />
<glyph
   unicode="Ū"
   horiz-adv-x="709"
   d="M617,688l0,-387C617,212 611,146 600,105C589,63 565,34 529,17C493,0 435,-8 355,-8C275,-8 217,1 181,18C145,35 121,64 110,105C98,146 92,212 92,301l0,387l85,0l0,-420C177,208 180,165 187,140C194,115 209,97 233,87C257,77 298,72 355,72C412,72 453,77 477,87C500,97 515,115 522,140C528,165 531,207 531,268l0,420M233,807l0,80l244,0l0,-80z"
   id="glyph828" />
<glyph
   unicode="Ų"
   horiz-adv-x="709"
   d="M617,688l0,-387C617,243 615,197 611,162C607,127 599,98 588,75C577,52 560,35 537,22C513,9 493,-7 476,-28C459,-49 451,-73 451,-99C451,-112 455,-121 462,-128C469,-135 481,-139 498,-139l17,1l0,-56C491,-195 478,-196 475,-196C412,-196 380,-170 380,-118C380,-100 385,-81 395,-61C405,-41 419,-22 436,-4C415,-7 388,-8 355,-8C275,-8 217,1 181,18C145,35 121,64 110,105C98,146 92,212 92,301l0,387l85,0l0,-420C177,208 180,165 187,140C194,115 209,97 233,87C257,77 298,72 355,72C412,72 453,77 477,87C500,97 515,115 522,140C528,165 531,207 531,268l0,420z"
   id="glyph830" />
<glyph
   unicode="Ů"
   horiz-adv-x="709"
   d="M617,688l0,-387C617,212 611,146 600,105C589,63 565,34 529,17C493,0 435,-8 355,-8C275,-8 217,1 181,18C145,35 121,64 110,105C98,146 92,212 92,301l0,387l85,0l0,-420C177,208 180,165 187,140C194,115 209,97 233,87C257,77 298,72 355,72C412,72 453,77 477,87C500,97 515,115 522,140C528,165 531,207 531,268l0,420M228,823C228,852 230,873 235,888C240,902 251,913 269,920C286,927 315,930 354,930C393,930 422,927 441,920C459,913 470,902 475,888C480,873 482,852 482,823C482,794 480,772 475,759C470,745 459,735 441,728C423,721 394,717 354,717C315,717 286,721 269,728C251,735 240,745 235,759C230,772 228,794 228,823M429,823C429,842 428,855 426,863C423,870 417,876 407,880C396,883 379,885 354,885C330,885 313,883 303,880C292,876 286,870 284,863C281,855 280,842 280,823C280,804 281,791 284,784C286,776 292,770 303,767C313,764 330,762 354,762C379,762 396,764 407,767C417,770 423,776 426,784C428,791 429,804 429,823z"
   id="glyph832" />
<glyph
   unicode="Ũ"
   horiz-adv-x="709"
   d="M617,688l0,-387C617,212 611,146 600,105C589,63 565,34 529,17C493,0 435,-8 355,-8C275,-8 217,1 181,18C145,35 121,64 110,105C98,146 92,212 92,301l0,387l85,0l0,-420C177,208 180,165 187,140C194,115 209,97 233,87C257,77 298,72 355,72C412,72 453,77 477,87C500,97 515,115 522,140C528,165 531,207 531,268l0,420M462,772C445,772 428,774 411,778C394,781 371,787 343,795C302,808 272,814 252,814C238,814 229,811 226,804C223,797 221,782 221,761l-47,0C174,790 176,813 179,829C182,845 189,857 200,866C210,874 226,878 247,878C264,878 281,876 298,873C314,869 337,863 366,854C369,853 378,851 392,847C405,843 418,840 429,838C440,836 449,835 457,835C471,835 480,839 483,846C486,853 488,868 488,889l47,0C535,859 533,836 530,820C527,804 520,792 510,784C499,776 483,772 462,772z"
   id="glyph834" />
<glyph
   unicode="V"
   horiz-adv-x="664"
   d="M278,0l-249,688l90,0l211,-582l5,0l212,582l87,0l-248,-688z"
   id="glyph836" />
<glyph
   unicode="W"
   horiz-adv-x="988"
   d="M663,0l-167,547l-4,0l-166,-547l-102,0l-188,688l88,0l154,-570l5,0l168,570l90,0l170,-570l6,0l149,570l86,0l-187,-688z"
   id="glyph838" />
<glyph
   unicode="Ẃ"
   horiz-adv-x="988"
   d="M663,0l-167,547l-4,0l-166,-547l-102,0l-188,688l88,0l154,-570l5,0l168,570l90,0l170,-570l6,0l149,570l86,0l-187,-688M459,747l0,5l101,136l88,0l0,-5l-129,-136z"
   id="glyph840" />
<glyph
   unicode="Ŵ"
   horiz-adv-x="988"
   d="M663,0l-167,547l-4,0l-166,-547l-102,0l-188,688l88,0l154,-570l5,0l168,570l90,0l170,-570l6,0l149,570l86,0l-187,-688M349,746l0,7l102,135l85,0l102,-135l0,-7l-56,0l-89,96l-88,-96z"
   id="glyph842" />
<glyph
   unicode="Ẅ"
   horiz-adv-x="988"
   d="M663,0l-167,547l-4,0l-166,-547l-102,0l-188,688l88,0l154,-570l5,0l168,570l90,0l170,-570l6,0l149,570l86,0l-187,-688M361,792l0,83l77,0l0,-83M550,792l0,83l76,0l0,-83z"
   id="glyph844" />
<glyph
   unicode="Ẁ"
   horiz-adv-x="988"
   d="M663,0l-167,547l-4,0l-166,-547l-102,0l-188,688l88,0l154,-570l5,0l168,570l90,0l170,-570l6,0l149,570l86,0l-187,-688M472,747l-129,136l0,5l88,0l101,-136l0,-5z"
   id="glyph846" />
<glyph
   unicode="X"
   horiz-adv-x="675"
   d="M545,0l-205,271l-8,0l-205,-271l-98,0l257,345l-253,343l102,0l200,-265l8,0l201,265l99,0l-253,-340l256,-348z"
   id="glyph848" />
<glyph
   unicode="Y"
   horiz-adv-x="610"
   d="M261,0l0,260l-249,428l92,0l199,-335l7,0l198,335l90,0l-251,-428l0,-260z"
   id="glyph850" />
<glyph
   unicode="Ý"
   horiz-adv-x="610"
   d="M261,0l0,260l-249,428l92,0l199,-335l7,0l198,335l90,0l-251,-428l0,-260M276,750l0,5l101,136l88,0l0,-5l-129,-136z"
   id="glyph852" />
<glyph
   unicode="Ŷ"
   horiz-adv-x="610"
   d="M261,0l0,260l-249,428l92,0l199,-335l7,0l198,335l90,0l-251,-428l0,-260M160,746l0,7l102,135l85,0l102,-135l0,-7l-56,0l-89,96l-88,-96z"
   id="glyph854" />
<glyph
   unicode="Ÿ"
   horiz-adv-x="610"
   d="M261,0l0,260l-249,428l92,0l199,-335l7,0l198,335l90,0l-251,-428l0,-260M176,775l0,83l77,0l0,-83M365,775l0,83l76,0l0,-83z"
   id="glyph856" />
<glyph
   unicode="Ỵ"
   horiz-adv-x="610"
   d="M261,0l0,260l-249,428l92,0l199,-335l7,0l198,335l90,0l-251,-428l0,-260M258,-165l0,103l95,0l0,-103z"
   id="glyph858" />
<glyph
   unicode="Ỳ"
   horiz-adv-x="610"
   d="M261,0l0,260l-249,428l92,0l199,-335l7,0l198,335l90,0l-251,-428l0,-260M283,747l-129,136l0,5l88,0l101,-136l0,-5z"
   id="glyph860" />
<glyph
   unicode="Ỷ"
   horiz-adv-x="610"
   d="M261,0l0,260l-249,428l92,0l199,-335l7,0l198,335l90,0l-251,-428l0,-260M252,740C252,758 255,771 261,778C267,785 279,791 297,796l22,6C342,808 356,813 362,818C368,823 371,831 371,843C371,855 368,864 363,869C357,874 349,878 338,879C327,880 308,880 283,880C250,880 216,878 181,875l0,46C218,926 257,928 297,928C330,928 355,926 373,923C391,920 405,912 414,901C423,890 428,872 428,849C428,826 424,809 416,799C407,788 391,780 366,773l-24,-6C329,763 319,760 314,758C308,755 304,752 303,749C302,745 301,739 301,731l-49,0z"
   id="glyph862" />
<glyph
   unicode="Ȳ"
   horiz-adv-x="610"
   d="M261,0l0,260l-249,428l92,0l199,-335l7,0l198,335l90,0l-251,-428l0,-260M183,807l0,80l244,0l0,-80z"
   id="glyph864" />
<glyph
   unicode="Ỹ"
   horiz-adv-x="610"
   d="M261,0l0,260l-249,428l92,0l199,-335l7,0l198,335l90,0l-251,-428l0,-260M412,772C395,772 378,774 361,778C344,781 321,787 293,795C252,808 222,814 202,814C188,814 179,811 176,804C173,797 171,782 171,761l-47,0C124,790 126,813 129,829C132,845 139,857 150,866C160,874 176,878 197,878C214,878 231,876 248,873C264,869 287,863 316,854C319,853 328,851 342,847C355,843 368,840 379,838C390,836 399,835 407,835C421,835 430,839 433,846C436,853 438,868 438,889l47,0C485,859 483,836 480,820C477,804 470,792 460,784C449,776 433,772 412,772z"
   id="glyph866" />
<glyph
   unicode="Z"
   horiz-adv-x="607"
   d="M54,0l0,76l388,532l-377,0l0,80l486,0l0,-74l-390,-534l395,0l0,-80z"
   id="glyph868" />
<glyph
   unicode="Ź"
   horiz-adv-x="607"
   d="M54,0l0,76l388,532l-377,0l0,80l486,0l0,-74l-390,-534l395,0l0,-80M269,747l0,5l101,136l88,0l0,-5l-129,-136z"
   id="glyph870" />
<glyph
   unicode="Ž"
   horiz-adv-x="607"
   d="M54,0l0,76l388,532l-377,0l0,80l486,0l0,-74l-390,-534l395,0l0,-80M268,749l-102,136l0,6l56,0l88,-96l89,96l56,0l0,-6l-102,-136z"
   id="glyph872" />
<glyph
   unicode="Ż"
   horiz-adv-x="607"
   d="M54,0l0,76l388,532l-377,0l0,80l486,0l0,-74l-390,-534l395,0l0,-80M265,792l0,83l77,0l0,-83z"
   id="glyph874" />
<glyph
   unicode="Ẓ"
   horiz-adv-x="607"
   d="M54,0l0,76l388,532l-377,0l0,80l486,0l0,-74l-390,-534l395,0l0,-80M257,-165l0,103l95,0l0,-103z"
   id="glyph876" />
<glyph
   unicode="a"
   horiz-adv-x="570"
   d="M55,140C55,179 60,210 69,232C78,254 94,270 117,280C139,290 170,295 211,295C230,295 294,293 402,290l0,30C402,360 398,388 391,405C383,422 369,432 349,437C328,442 294,444 245,444C224,444 197,443 165,441C132,438 107,436 89,433l0,71C142,513 203,518 274,518C334,518 379,512 409,500C438,487 458,467 468,440C478,412 483,372 483,319l0,-319l-73,0l-4,71l-6,0C386,39 364,18 333,8C302,-3 265,-8 223,-8C164,-8 122,3 95,25C68,46 55,85 55,140M381,109C395,133 402,166 402,209l0,23l-170,0C204,232 184,230 171,226C158,222 148,214 143,203C138,191 135,173 135,148C135,124 138,106 144,95C150,84 161,76 178,72C194,67 219,65 254,65C287,65 315,68 336,74C357,80 372,92 381,109z"
   id="glyph878" />
<glyph
   unicode="á"
   horiz-adv-x="570"
   d="M55,140C55,179 60,210 69,232C78,254 94,270 117,280C139,290 170,295 211,295C230,295 294,293 402,290l0,30C402,360 398,388 391,405C383,422 369,432 349,437C328,442 294,444 245,444C224,444 197,443 165,441C132,438 107,436 89,433l0,71C142,513 203,518 274,518C334,518 379,512 409,500C438,487 458,467 468,440C478,412 483,372 483,319l0,-319l-73,0l-4,71l-6,0C386,39 364,18 333,8C302,-3 265,-8 223,-8C164,-8 122,3 95,25C68,46 55,85 55,140M381,109C395,133 402,166 402,209l0,23l-170,0C204,232 184,230 171,226C158,222 148,214 143,203C138,191 135,173 135,148C135,124 138,106 144,95C150,84 161,76 178,72C194,67 219,65 254,65C287,65 315,68 336,74C357,80 372,92 381,109M241,602l0,5l101,136l88,0l0,-5l-129,-136z"
   id="glyph880" />
<glyph
   unicode="ă"
   horiz-adv-x="570"
   d="M55,140C55,179 60,210 69,232C78,254 94,270 117,280C139,290 170,295 211,295C230,295 294,293 402,290l0,30C402,360 398,388 391,405C383,422 369,432 349,437C328,442 294,444 245,444C224,444 197,443 165,441C132,438 107,436 89,433l0,71C142,513 203,518 274,518C334,518 379,512 409,500C438,487 458,467 468,440C478,412 483,372 483,319l0,-319l-73,0l-4,71l-6,0C386,39 364,18 333,8C302,-3 265,-8 223,-8C164,-8 122,3 95,25C68,46 55,85 55,140M381,109C395,133 402,166 402,209l0,23l-170,0C204,232 184,230 171,226C158,222 148,214 143,203C138,191 135,173 135,148C135,124 138,106 144,95C150,84 161,76 178,72C194,67 219,65 254,65C287,65 315,68 336,74C357,80 372,92 381,109M284,598C243,598 212,604 193,616C173,627 160,643 155,663C150,682 147,709 147,743l53,0C200,719 201,701 204,690C207,679 214,670 226,663C238,656 257,653 284,653C311,653 330,656 342,663C354,670 362,679 365,691C368,702 369,720 369,743l54,0C423,710 420,683 415,664C409,644 396,628 376,616C356,604 325,598 284,598z"
   id="glyph882" />
<glyph
   unicode="ắ"
   horiz-adv-x="570"
   d="M55,140C55,179 60,210 69,232C78,254 94,270 117,280C139,290 170,295 211,295C230,295 294,293 402,290l0,30C402,360 398,388 391,405C383,422 369,432 349,437C328,442 294,444 245,444C224,444 197,443 165,441C132,438 107,436 89,433l0,71C142,513 203,518 274,518C334,518 379,512 409,500C438,487 458,467 468,440C478,412 483,372 483,319l0,-319l-73,0l-4,71l-6,0C386,39 364,18 333,8C302,-3 265,-8 223,-8C164,-8 122,3 95,25C68,46 55,85 55,140M381,109C395,133 402,166 402,209l0,23l-170,0C204,232 184,230 171,226C158,222 148,214 143,203C138,191 135,173 135,148C135,124 138,106 144,95C150,84 161,76 178,72C194,67 219,65 254,65C287,65 315,68 336,74C357,80 372,92 381,109M276,598C235,598 204,604 185,616C165,627 152,643 147,663C142,682 139,709 139,743l53,0C192,719 193,701 196,690C199,679 206,670 218,663C230,656 249,653 276,653C303,653 322,656 334,663C346,670 354,679 357,691C360,702 361,720 361,743l54,0C415,710 412,683 407,664C401,644 388,628 368,616C348,604 317,598 276,598M241,775l0,5l101,136l88,0l0,-5l-129,-136z"
   id="glyph884" />
<glyph
   unicode="ặ"
   horiz-adv-x="570"
   d="M55,140C55,179 60,210 69,232C78,254 94,270 117,280C139,290 170,295 211,295C230,295 294,293 402,290l0,30C402,360 398,388 391,405C383,422 369,432 349,437C328,442 294,444 245,444C224,444 197,443 165,441C132,438 107,436 89,433l0,71C142,513 203,518 274,518C334,518 379,512 409,500C438,487 458,467 468,440C478,412 483,372 483,319l0,-319l-73,0l-4,71l-6,0C386,39 364,18 333,8C302,-3 265,-8 223,-8C164,-8 122,3 95,25C68,46 55,85 55,140M381,109C395,133 402,166 402,209l0,23l-170,0C204,232 184,230 171,226C158,222 148,214 143,203C138,191 135,173 135,148C135,124 138,106 144,95C150,84 161,76 178,72C194,67 219,65 254,65C287,65 315,68 336,74C357,80 372,92 381,109M238,-165l0,103l95,0l0,-103M284,598C243,598 212,604 193,616C173,627 160,643 155,663C150,682 147,709 147,743l53,0C200,719 201,701 204,690C207,679 214,670 226,663C238,656 257,653 284,653C311,653 330,656 342,663C354,670 362,679 365,691C368,702 369,720 369,743l54,0C423,710 420,683 415,664C409,644 396,628 376,616C356,604 325,598 284,598z"
   id="glyph886" />
<glyph
   unicode="ằ"
   horiz-adv-x="570"
   d="M55,140C55,179 60,210 69,232C78,254 94,270 117,280C139,290 170,295 211,295C230,295 294,293 402,290l0,30C402,360 398,388 391,405C383,422 369,432 349,437C328,442 294,444 245,444C224,444 197,443 165,441C132,438 107,436 89,433l0,71C142,513 203,518 274,518C334,518 379,512 409,500C438,487 458,467 468,440C478,412 483,372 483,319l0,-319l-73,0l-4,71l-6,0C386,39 364,18 333,8C302,-3 265,-8 223,-8C164,-8 122,3 95,25C68,46 55,85 55,140M381,109C395,133 402,166 402,209l0,23l-170,0C204,232 184,230 171,226C158,222 148,214 143,203C138,191 135,173 135,148C135,124 138,106 144,95C150,84 161,76 178,72C194,67 219,65 254,65C287,65 315,68 336,74C357,80 372,92 381,109M289,598C248,598 217,604 198,616C178,627 165,643 160,663C155,682 152,709 152,743l53,0C205,719 206,701 209,690C212,679 219,670 231,663C243,656 262,653 289,653C316,653 335,656 347,663C359,670 367,679 370,691C373,702 374,720 374,743l54,0C428,710 425,683 420,664C414,644 401,628 381,616C361,604 330,598 289,598M274,775l-129,136l0,5l88,0l101,-136l0,-5z"
   id="glyph888" />
<glyph
   unicode="ẳ"
   horiz-adv-x="570"
   d="M55,140C55,179 60,210 69,232C78,254 94,270 117,280C139,290 170,295 211,295C230,295 294,293 402,290l0,30C402,360 398,388 391,405C383,422 369,432 349,437C328,442 294,444 245,444C224,444 197,443 165,441C132,438 107,436 89,433l0,71C142,513 203,518 274,518C334,518 379,512 409,500C438,487 458,467 468,440C478,412 483,372 483,319l0,-319l-73,0l-4,71l-6,0C386,39 364,18 333,8C302,-3 265,-8 223,-8C164,-8 122,3 95,25C68,46 55,85 55,140M381,109C395,133 402,166 402,209l0,23l-170,0C204,232 184,230 171,226C158,222 148,214 143,203C138,191 135,173 135,148C135,124 138,106 144,95C150,84 161,76 178,72C194,67 219,65 254,65C287,65 315,68 336,74C357,80 372,92 381,109M284,598C243,598 212,604 193,616C173,627 160,643 155,663C150,682 147,709 147,743l53,0C200,719 201,701 204,690C207,679 214,670 226,663C238,656 257,653 284,653C311,653 330,656 342,663C354,670 362,679 365,691C368,702 369,720 369,743l54,0C423,710 420,683 415,664C409,644 396,628 376,616C356,604 325,598 284,598M235,752C235,770 238,783 244,790C250,797 262,803 280,808l22,7C325,820 339,825 345,830C351,835 354,843 354,855C354,872 349,882 339,886C328,890 307,892 275,892C242,892 205,890 164,887l0,46C198,938 237,941 280,941C313,941 338,939 356,936C374,932 388,924 397,913C406,902 411,885 411,862C411,839 407,822 399,812C390,801 374,793 349,786l-24,-7C311,775 301,772 296,770C291,767 287,764 286,761C285,757 284,751 284,743l-49,0z"
   id="glyph890" />
<glyph
   unicode="ẵ"
   horiz-adv-x="570"
   d="M55,140C55,179 60,210 69,232C78,254 94,270 117,280C139,290 170,295 211,295C230,295 294,293 402,290l0,30C402,360 398,388 391,405C383,422 369,432 349,437C328,442 294,444 245,444C224,444 197,443 165,441C132,438 107,436 89,433l0,71C142,513 203,518 274,518C334,518 379,512 409,500C438,487 458,467 468,440C478,412 483,372 483,319l0,-319l-73,0l-4,71l-6,0C386,39 364,18 333,8C302,-3 265,-8 223,-8C164,-8 122,3 95,25C68,46 55,85 55,140M381,109C395,133 402,166 402,209l0,23l-170,0C204,232 184,230 171,226C158,222 148,214 143,203C138,191 135,173 135,148C135,124 138,106 144,95C150,84 161,76 178,72C194,67 219,65 254,65C287,65 315,68 336,74C357,80 372,92 381,109M282,598C241,598 210,604 191,616C171,627 158,643 153,663C148,682 145,709 145,743l53,0C198,719 199,701 202,690C205,679 212,670 224,663C236,656 255,653 282,653C309,653 328,656 340,663C352,670 360,679 363,691C366,702 367,720 367,743l54,0C421,710 418,683 413,664C407,644 394,628 374,616C354,604 323,598 282,598M392,800C375,800 358,802 341,806C324,809 301,815 273,823C232,836 202,842 182,842C168,842 159,839 156,832C153,825 151,810 151,789l-47,0C104,818 106,841 109,857C112,873 119,885 130,894C140,902 156,906 177,906C194,906 211,904 228,901C244,897 267,891 296,882C299,881 308,879 322,875C335,871 348,868 359,866C370,864 379,863 387,863C401,863 410,867 413,874C416,881 418,896 418,917l47,0C465,887 463,864 460,848C457,832 450,820 440,812C429,804 413,800 392,800z"
   id="glyph892" />
<glyph
   unicode="ǎ"
   horiz-adv-x="570"
   d="M55,140C55,179 60,210 69,232C78,254 94,270 117,280C139,290 170,295 211,295C230,295 294,293 402,290l0,30C402,360 398,388 391,405C383,422 369,432 349,437C328,442 294,444 245,444C224,444 197,443 165,441C132,438 107,436 89,433l0,71C142,513 203,518 274,518C334,518 379,512 409,500C438,487 458,467 468,440C478,412 483,372 483,319l0,-319l-73,0l-4,71l-6,0C386,39 364,18 333,8C302,-3 265,-8 223,-8C164,-8 122,3 95,25C68,46 55,85 55,140M381,109C395,133 402,166 402,209l0,23l-170,0C204,232 184,230 171,226C158,222 148,214 143,203C138,191 135,173 135,148C135,124 138,106 144,95C150,84 161,76 178,72C194,67 219,65 254,65C287,65 315,68 336,74C357,80 372,92 381,109M242,601l-102,136l0,6l56,0l88,-96l89,96l56,0l0,-6l-102,-136z"
   id="glyph894" />
<glyph
   unicode="â"
   horiz-adv-x="570"
   d="M55,140C55,179 60,210 69,232C78,254 94,270 117,280C139,290 170,295 211,295C230,295 294,293 402,290l0,30C402,360 398,388 391,405C383,422 369,432 349,437C328,442 294,444 245,444C224,444 197,443 165,441C132,438 107,436 89,433l0,71C142,513 203,518 274,518C334,518 379,512 409,500C438,487 458,467 468,440C478,412 483,372 483,319l0,-319l-73,0l-4,71l-6,0C386,39 364,18 333,8C302,-3 265,-8 223,-8C164,-8 122,3 95,25C68,46 55,85 55,140M381,109C395,133 402,166 402,209l0,23l-170,0C204,232 184,230 171,226C158,222 148,214 143,203C138,191 135,173 135,148C135,124 138,106 144,95C150,84 161,76 178,72C194,67 219,65 254,65C287,65 315,68 336,74C357,80 372,92 381,109M142,601l0,7l102,135l85,0l102,-135l0,-7l-56,0l-89,96l-88,-96z"
   id="glyph896" />
<glyph
   unicode="ấ"
   horiz-adv-x="570"
   d="M55,140C55,179 60,210 69,232C78,254 94,270 117,280C139,290 170,295 211,295C230,295 294,293 402,290l0,30C402,360 398,388 391,405C383,422 369,432 349,437C328,442 294,444 245,444C224,444 197,443 165,441C132,438 107,436 89,433l0,71C142,513 203,518 274,518C334,518 379,512 409,500C438,487 458,467 468,440C478,412 483,372 483,319l0,-319l-73,0l-4,71l-6,0C386,39 364,18 333,8C302,-3 265,-8 223,-8C164,-8 122,3 95,25C68,46 55,85 55,140M381,109C395,133 402,166 402,209l0,23l-170,0C204,232 184,230 171,226C158,222 148,214 143,203C138,191 135,173 135,148C135,124 138,106 144,95C150,84 161,76 178,72C194,67 219,65 254,65C287,65 315,68 336,74C357,80 372,92 381,109M137,601l0,7l102,135l85,0l102,-135l0,-7l-56,0l-89,96l-88,-96M330,762l0,5l101,136l88,0l0,-5l-129,-136z"
   id="glyph898" />
</font>
</defs>
</svg>
